&title=Idiot
&artist=Massive New Krew
&first=0.2
&des=pan the g*****ment is an idiot!!!
&lv_5=15
&inote_5=(160)
{8}
72,1/6b,5,3b/8,4,3b/6b,,1b/8b,,
{32}
1b>2>3<4<5<6<7>8[1:2]/8b<7<6>5>4>3>2<1b[1:3],2b/7b,/6b/3b,/5b/4b,,,,,,,,,,,,,,,,,,,,,,,,,,,,,,,,,,,,,,,,,,,,,,,,,,,,,,,,,,,,,,,,,,,,,,,,,,,,,,,,,,,,,,,,,,,,,,,,,,,,,,,,,,,,,,,,,,,,,,,,,,,,,
{8}
6/8<5[12:5],,E2,,E3,,E4,,2/4>1[12:5],,E6,,E7,,E8,
{16}
2,3,4>1[12:5]/8,,,,
{8}
E7,,E6,,E5,,5<8[12:5]/1,2,3,,4,,E5,,4b/8b,
{16}
6,5,6h[35:22],,,7,,,1,,4,,3,,25,,25,,25,,4,3h[36:16],,,8,,7,,6,,5/1,,3,4,3h[35:22],,,2,,,8,,5,,6,,74,,74,,74,,5,6h[36:6],,,4,,56,,47,,8b/3b,,2,1,2h[35:22],,,3,,,5,,8,,7,,61,,61,,61,,8,7h[36:16],,,4,,3,,2,,1/6,,7,8,7h[35:22],,,6,,,4,,1,,2,,38,,38,,38,,1,2h[36:16],,,5,,6,,7,,48,,,,74,,,,64,,,,45,,,,35,,,,25,,,,3,4,3,,7,5,7,,48,,,,74,,,,64,,,,45,,,,45,,35,,25,,,1x,7,8,6,8,7,,3hb[12:6],,2,,1,,8,,7,,2/6b,,1/5b,,4b/8,,3b/7,,1,5,2,6,4,8,5,7,{24}4,6,4,6,4,6,4-1[8:1],6,4,6,4,6,4b-7[8:1]*-6[10:1],,,,,,4b,,,,,,4bw8b[8:1],,,4b,,,
{16}
4b,,,,26,,1,7,,1,8,,{32}2,3,4h[24:5],,7,6,5h[24:2],,B5/B4,Cf,,,,,,,{16}8b-6>4v7[12:4]/1,,,,4,,,,2,,2,,2b-4<6v3[12:4],,,,,,7b,,7b>1-6-3<5b[12:5],,,,,,,,,,,,2xh[12:1],,7,5,7,,8,5,8,,1,5,1-4b[12:3],,1,,4pp4b[12:3],,,,,,,,{32}D4f,D3f,D2f,D1f,D8f,D7f,D6f,5xhb[12:19],,,,,,,,,{36}2b,3b,4b,,,,,,,8b,7b,6b,,,,,,,2b,3b,4b,,,,,,,8b,7b,6b,,,,,,,2b,3b,4b,,,,,,,8b,7b,6b,,,,,,,2b,3b,4b,,{16}7b,5b,6b,2b,,3b,5b,,{36}4bhx[16:10],,,,,7b,6b,5b,,,,,,,1b,2b,3b,,,,,,,7b,6b,5b,,,,,,,2b/8b,3b,4b,,,,7b/1b,6b,5b,,,,2b,3b,4b,,,8b,7b,6b,,,,,,,,{32}3b,4b,3b,,6b,,5b,,,7b,,,{36}4bxh[12:8],,,,,1b,2b,3b,,,,,,,7b,6b,5b,,,,,,1b,2b,3b,,,,,,,7b,6b,5b,,2b,3b,4b,,8bh[12:1],,1b,,,,,,,7b,6b,5b,,,,2b,,8b,,{32}3b,4b,3b,,7b,,5b,,6b,,,,2bhxh[12:1],,,,{36}7b,6b,5b,3b,,1b,,4b,,8bh[12:1],,,2b,,{16}5hb[16:6],,,,,,{36}4x<6-3-8>2-7-4b[12:7],,,,,,,,,,,,,,,,,,,,,,,,,,,,,,,,,,,,{16}7b,7b,,4b,6b,2b,5xbh[12:7],,
1b-7<6b[10:1],,,,{36}D1/E1/1b>4b[10:1],D8/E8,D7f/E7f,,,,,,,1b/D2/E2,D3/E3,D4f/E4f,,{16}6b,7b,8b-2>3b[10:1]/4bxh[12:6],,,,{36}8b<5b[10:1]/D1/E1,D2/E2,D3f/E3f,,,,,,,8b/D8/E8,D7/E7,D6f/E6f,,,1bxh[12:7],,,5xb-3>2b[10:1],,,,,,,,,,{36}D5/E5/5xb<8b[10:1],D4/E4,D3f/E3f,,,,,,,,5xb/D6/E6,D7/E7,{32}D8f/E8f,,4xb-6<7b[10:1],,,8bxh[12:6],,,,,,,4xb/D5/E5,D6/E6,{32}D7f/E7f,,,,,,,1bx-5b[10:1],2bx,3bx,4bx,5bx,6bx,7bx,8bx,1bxw5b[10:1],,,,,,,,1b,,,,,,,,{16}4z8b[10:1]/5b-1[10:1],,,,4b/5b,,,,{36}1bh[24:3]/2b,3b,4b,,,,,,,8bh[24:3]/7b,6b,5b,,,,,,,{16}2b-4b[10:1]/8b-4b[12:1],,1b/7b,,2b-6b[10:1]/8b-6b[10:1],,,,2b/8b,,,,3b/1b>4b[10:1],,2b,8b,1b<6b[10:1],,7b,,1b-4b[10:1],,,,1b-6b[10:1],,7b,,1b,,2,,{8}
8/3b,4,6b/1,5,
{32}1bx,8bx,1bx,8bx,1bx,8bx,1bx,8bx,1xbw5b[10:1],8bx,1bx,8bx,1bx,8bx,1bx,8bx,1bx>8[12:9]*<2[12:9],,A5f,,,,,,,,,,,,,,,,,,,,,,,,,,,,,,,,,,,,,,,,,,,,,,{16}3,4,3,,7,8,6,,15,,,,61,,,,71,,,,18,,,,18,,28,,38,,,4x,6,5,7,5,6,,2hb[12:6],,3,,4,,5,,6,,3/7b,,4/8b,,1b/5,,2b/6,,4,8,3,7,1,5,8,6,{24}1,7,1,7,1,7,1-4b[10:1],7,1,7,1,7,1b-6[10:1]*-7[10:1],,,,,,1b,,,,,2b,8b,,1bw5[16:1],,,,1b,,,,,,,,,,,,,,,,,,,,,{16}1,3,2,4,3,5,
2b,6,4,6,2b,5,3,5,2b,6,5,6,{24}4b,3,2,7b,6,5,{16}1b,4,8,6,3b,5,1,7,3b,8,2b,7,1b,6b,3,4,2b,6b,5b,8,3b,4,2,7,
1b,8,5,6,{24}4b,3,2,6b,7,8,{16}3b,5,4,7,3b,4,1,6b,5,8,
{32}2bx,1bx,2bx,1bx,{16}3,5,4b,8,2b,6,7,6,1b,4,3,4,1b,6,7,6,{24}1b,2,3,6b,7,8,{16}2b,6,5,6,1b,5,4,5,3b,7,1b,5,2b,6b,4,5,1b,1b,1b,,7b,5,6,4,7b,4,5,3,7b,3,4b,2,7b,1,5b,3,6b,2,8,4b,6,5,{24}1bz5b[16:3],2bs6b[16:2],1b,2b,1b,2b,,,,D6f,,{16},,,,,,,1b-5b[12:1]/8b-6b[12:1],,,,8b-4b[12:1]/1b-3b[12:1],,,,1b-5b[12:1]/8b-6b[12:1],,,,1b/8b,,,,E2f,E6f,E3f,E7f,E4f,,,,8b>3b[12:1],,,,8b<5b[12:1],4b,4b,,8b,,4b,,7b,5b,6b,3b,1bw5b[12:1],,,,1b,,,,E4f,,E6f,,4,,6,,1b-3b[12:1]*-4[12:1],,,,1b-7[12:1]*-6b[12:1],,,,1b-5[12:1],,,,1xh[32:1],,8b,,8b-3[12:1]*-5b[12:1],,,,8b,,,4b,7b,2b,5bv8b[12:1],,,,5b,,A1f,,,,D8f,D3f,,D7f,D4f,,A5f,,A1f,,Cf,,4bq6[12:6]*p2b[12:6],,,,,,,,,,,,,,,,
4b/7b,,8<5[12:3],5,8,,,4,{32},,,,{16}3,,2,,1,,84,,84,,84,,1,5,,,7,,64,,5,,3,,2>5[12:3],4,2,,,6,,,{16}7,,8,,1,,26,,26,,26,,1,5,,,3,,45,,6,,57,,1<6[12:3],3,1,,,5,,,{16}4,,3,,2,,15,,15,,15,,3,4,,,8,,75,,6,,3,,4<7[12:3],2,4,,,1,,,2,,3,,4,,8h[12:3],,,,2h[12:3],,,,6h[12:3],,,,4h[12:3],,,,
8b,,,,47,,,3,6,,2,,53,,6,,5b/4,,36,,27,,,5,4,,E5,,E3,,E4,,
1b,,,,83,,,7,2,,8,,17,,2,,6/3b,,7b/2,,1b/8,,,4,5,,38,,27,,16,,1b,2,3,4,5,6,7,8,{24}1b,2,3,4,5,6,7,8,1,2,3,4,{32}5b,6,7,8,1,2,3,4,5b,6,7,8,1,2,3,4,{48}5b,6,7,8,1b,2,3,4,5b,6,7,8,1b,2,3,4,5b,6,7,8,1b,2,3,4xh[48:31],5bxw1[23#62:1],6xh[48:29],,,,,,,,,,,,,,,,,,,,,,,,,,,,,,,,,,,,,,,,{16}8b,7,6/1b,2,3/7b,6,5/2b,3,4/8b,7,6/1b,2,3/7b,6,5b,,,,3h[12:2]/4h[12:2],,,,6,5,6,5,8h[12:2],,,,3,4,3,4,
{32}1xb,2x,3x,4x,7b,6,5,4,2bx,3x,4x,5x,8b,7,6,5,{48}1bx,2bx,3bx,4bx,5bx,6bx,7bx,{32}1bx,8bx,1bx,8bx,1x-5b[12:1],8bx,1bx,8bx,1bx,8bx,1bx,,{16}1bx-4[12:1]*-6[12:1],,,,1b-3b[12:1]*-7b[12:1],,,,1b,,,,2-5b[12:1]/8b-5b[12:1],,4b/6b,,2b-4b[12:1]/8-6b[12:1],,,,2b/8b,,,,2bx/8bx,2bx/8bx,{32}2bx/8bx,3b/7b,4b/6b,5b-1b[24:1],,,,,{16}5bx,,8bx-3[12:1]*-5[12:1],,,,8b-2b[12:1]*-6b[12:1],,,,8b,,,,1-4b[12:1]/7b-4b[12:1],,3b/5b,,1b/7b,,,,3b/1b,3b/1b,3b/1b,3b/1b,3b/1b,,,,6b/8b,6b/8b,6b/8b,6b/8b,5bx-8[12:1]*-2[12:1],,,,5b-7b[12:1]*-3b[12:1],,,,5b,,,,6-1b[12:1]/4b-1b[12:1],,8b/2b,,6b-8b[12:1]/4-2b[12:1],,,,6b/4b,,,,6b/4b,6b/4b,6b/4b,,,2b/8b,,2b/8b,,,{32}7b,6b,5b,1b,2b,3b,,,,,,{16}4b-2b[12:1]/5b-7b[12:1],3b/6b,,,4b/5b,,,,{24}1bh[24:1],8bh[24:1],1bh[24:1],8bh[24:1],1bh[24:1],8bh[24:1],1bh[24:1],8bh[24:1],1bh[24:1],8bh[24:1],1bh[24:1],8bh[24:1],
{30}1bh[24:1],2,3,4,5b/1b,8x,7x,6x,5b/1b,2,3,4,5b/1b,8x,7x,6x,{16}1b>4b[12:1]/5b,,,,1b/8b,,,,{32}1b/8b,7b,6b,5b,,,,,8b<5b[12:1]/1b,2b,3b,4b,,,,,1b/8b,,,,,,,,8b/1b,2b,3b,4b,,,,,{16}1b/8b,,1bh[12:2]/8bh[12:2],,,,C,,4b/6b,,,4b/6b,4b/6b,,3b/7b,,4b-2b[12:1]/6b,,3,,4b/6b-8b[12:1],,7,,6b/4bv1b[12:1],,3b,,4b,,,{35},,8xbh[36:1],7x,6x,5x,4b/8xb,1x,2x,3x,4b/8xb,7x,6x,5x,4b/8xb,1x,2x,3x,{16}4b/8xb,8xb-6b[12:1],,8xb,8xb,,,,,5b-7b[12:1]/3b,,7,,5b/3b-1b[12:1],,1,,3b/5bv8b[12:1],,6,,3b/5b,,1,,3b/5b,,3bh[12:2]/5bh[12:2],,,,C,,1b/8b,,3b/6b,2b>4[12:1]/7<5b[12:1],,1b/8b,,2v4b[12:1]/7bv5[12:1],,,,2b/7b,,,,{24}1b,2,3/8b,7,6/1b,2,3/8b,7,6/1b,2,3/8b,7,6,{48}4b,3bx,5b,6bx,4b,3bx,5b,6bx,4b,3bx,5b,6bx,3bh[42:1],2bxh[42:1],6bh[42:1],7bxh[42:1],3bh[42:1],2bxh[42:1],6bh[42:1],7bxh[42:1],3bh[42:1],2bxh[42:1],6bh[42:1],7bxh[42:1],4b>3>2<1<8<7<6>5[1:2]/5b<6<7>8>1>2>3<4b[1:3],,E
