&title=メルヘル小惑星
&artist=ナナヲアカリ
&first=1.13
&des=MiraT
&lv_5=13
&inote_5=(185)
{4}1>4[2:1],5,6,7,
{4}8<5[2:1],4,3,2,
{4}1,82,8,17,
{4}1,18,Ch[2:3],,
{4},,,,
{4}E2,E4/B4,E7/B6/E6,8b,
{4}1-5[8:1],17,8-4[8:1],82,
{4}1>5[4:1],5<1[4:1],1-5[4:1],6,
{8}8-4[8:1],8,2-5[8:1],2,6<1[8:1],6,4,4,
{8}38,2,15,6,74,3,{16}5,4,5,4,
{4}5-1[8:1],53,4-8[8:1],46,
{4}5<1[4:1],1>5[4:1],5-1[4:1],2,
{8}3>8[8:1],3,4-8[8:1],4,2-5[8:1],2,6,6,
{8},35,,47,,12,3,4,
{8}5x/6x,5x/6x,5x/6x,5b/6b,,{16}6,5,{8}7h[8:1],5,
{8}7h[8:1],1,7h[8:1],6,7h[8:1],8,61,52,
{8}3x/4x,3x/4x,3x/4x,3b/4b,,{16}3,4,{8}2h[8:1],B4/E4,
{8}2h[8:1],B6/E7,2h[8:1],B8/E1,3,3,2,1,
{8}8x/7x,8x/7x,8x/7x,8b/7b,,{16}7,8,{8}6h[8:1],8,
{8}6h[8:1],4,6h[8:1],7,6h[8:1],5,74,83,
{8}2x/1x,2x/1x,2x/1x,2b/1b,,{16}2,1,{8}3,7,
{8}6q4[4:1],3,6x/2x,,1,1,8,27,
{8}3,3,13,3,6,6,86,6,
{8}2>4[8:1],7,2-8[8:1],5,2-6[8:1],6,2,8,
{8}7,7,75,7,2,2,24,2,
{8}8,7,1,2,54,5pp7[4:1]/4qq2[4:1],,45,
{8},,1x/8x,,36,36,4x/5x,,
{8}2-4[8:1],1-5[8:1],2,1,8-4[8:1],7-5[8:1],8,7,
{8}3,3,31,3,6,6,68,6<1[8:1],
{8},2>5[8:1],,7,7b,,8,7,
{8}6xv1[8:1],,3,3xh[4:1],,2,2x<4[4:3],,
{8},A3,A2,A1,A8,A7,A6,,
{8}8xv3[8:1],,5,5xh[4:1],,1,1x>8[4:3],,
{8},E8,E7,E6,E4,E3,E2,,
{8}7x-3[8:1],,4,4xh[4:1],,2,1x,8,
{8}7h[2:1]/4-2-6-1[2:1],,,,,8,8,,
{8}27,,8b/1,8,8b/2,8,8b/3,8,
{8}8bx<5b[8:1]/4bx>1b[8:1],,8bxq4b[8:1]/4bxq8b[8:1],,8bx/4bx,,C,,
{4}1b-5[8:1],7-4[8:1]/1,3>8[8:1]/7,36,
{4}5-1[8:1],5>2[8:1]/3,5<8[8:1]/7,51,
{4}1-4[8:1],1-3[8:1]/6,1-5[8:1]/7,18,
{4}3-8[8:1]/7-4[8:1],37,2b/6b,{16}8,1,8,1,
{4}8<5[8:1],8pp4[4:1],8,6<1[4:1],
{4}1>4[4:1],4<7[4:1],7-3[8:1],3,
{8}1>4[8:1],,6/1-5[8:1],6,16,,7<4[8:1]/4>1[8:1],,
{4}74,1w5[8:1],1,{16}3,7,2,6,
{4}1b<6qq5[4:1],5q1>3[4:1],7,6,
{4}8>3pp4[4:1],4p8<6[4:1],2,3,
{4}4-2[8:1]*-1[8:1],4-6[8:1]*-7[8:1],4-8[8:1],4,
{4}5qq5b[4:1]*pp5b[4:1],,,{16}6,2,7,3,
{4}8b<5p4[2:1],4,3v8[8:1],3x,
{4}1>4q5[2:1],5,6v1[8:1],6x,
{8}2,1,38,7,8,16,{16}1,8,1,8,
{4}1b<6b[8:1]*>4b[8:1],1bw5b[8:1],1b,{16}7,2,7,2,
{4}8x<5[8:1],8/1>4[8:1],1x/8<5[8:1],8/1>4[8:1],
{4}1/8x-4[8:1],8/1x-5[8:1],1/8x-4[8:1],8-6[8:1]/1-5[8:1],
{4}1x/8-4[8:1],8x/1-5[8:1],1x-3[8:1]/8-4[8:1],8x/1-5[8:1],
{4}1x/8-4[8:1],1xpp6[4:1],8xh[4:1],,
{4}8-5[8:1]/7-4[8:1],87,1-4[8:1]/2-5[8:1],12,
{4}7-4[4:1],4>1[4:1],1-5[4:1],3,
{4}2>5[8:1],2<7[8:1],2-6[8:1],2,
{8}7,7,3,3,{16}E6,E4,E8,E2,Cf,,,,
{4}5x<8[8:1],5/4>1[8:1],4x/5<8[8:1],5/4>1[8:1],
{4}4/5x-1[8:1],5/4x-8[8:1],4/5x-1[8:1],5-7[8:1]/4-8[8:1],
{4}4x/5-1[8:1],5x/4-8[8:1],4x-2[8:1]/5-1[8:1],5x/4-8[8:1],
{4}4x/5-1[8:1],4xqq7[4:1],5xh[4:1],,
{4}1>4[8:1]/5<8[8:1],15,1<6[8:1]/5>2[8:1],15,
{4}1-5[4:1],5-7-3[4:1],7,8,
{4}7>3[4:1],3<7[4:1],7s3[4:1],1,
{8},2h[8:5],,4,4-8b[8:1],,,,
{4}2v5[8:1],12,7v4[8:1],78,
{4}2-6[8:1],8-5[8:1]*-3[8:1],8,26,
{8}1-5[8:1],8-6[8:1],1,8,2-5[8:1],8-4[8:1],2,8,
{8}1-5[8:1],6-8[8:1],1,6,3,3,{16}7,1,7,1,
{4}6<1[8:1],65,3>8[8:1],34,
{4}4q8[8:1]*<7[8:1],4>1[8:1],4,26,
{8}8-4[8:1],3-8[8:1],8,3,5<8[8:1],2>5[8:1],5,2,
{16}8,,8,,7b,1,7,1,6b,2,6,2,5b,3,5,3,
{4}7v4[8:1],87,2v5[8:1],21,
{4}7-3[8:1],1-4[8:1]*-6[8:1],1,73,
{8}8-4[8:1],1-3[8:1],8,1,7-4[8:1],1-5[8:1],7,1,
{8}8-4[8:1],3-1[8:1],8,3,6,6,{16}2,8,2,8,
{4}3>8[8:1],34,6<1[8:1],65,
{4}5p1[8:1]*>2[8:1],5<8[8:1],5,73,
{8}1-5[8:1],6-1[8:1],1,6,4>1[8:1],7<4[8:1],4,7,
{8},26,,48,3x,2x,1x,A7/E7/B7,
