&title=浮世絵横丁
&artist=魔界都市ニイガタ
&first=0
&des=///////
&lv_5=14+
&inote_5=(192)
{1},,{8}1h[8:3],,,4h[8:3],,,,35,,2h[2:1],1,8h[4:1],,,,,
8h[8:3],,,5h[8:3],,,,64,,7h[2:1],8,1h[4:1],,,,,
3h[4:1]/8,,4,25,,78,{16}2,1,{8}2,8h[4:1]/3,,7,16,,3h[4:1]/4,{16}2-6[8:1],1,8,7,
{8}6b/2b,,,3b/7b,,,,2bqq7[8:5]/5bqq6[8:5],{1},
{12}1b/8b,,,4,5,3,7,8,6,2,1,3,7,6,5,2,3,4,{16}8b,1b,{8}7b,,,
35,2h[8:1],{16}4-1[8:1],3,{8}5,7<4[8:1],{16},8,{8}7,3h[16:3],
{16},5h[16:3],,,4,7,,
6pp7[16:3]/1,{8},2,3,4,4h[8:1],{16}6,5,{8}8<5[8:1],3-7[8:1],8,3,4,8,16,
2>5[8:1]/8<5[8:1],,8b/2b,,1,82,,
64,7h[8:1],{16}5-8[8:1],6,{8}4,2>5[8:1],{16},1,{8}2,6h[16:3],{16},8,7,1,7,2,7,
3qq2[16:3],{8},7,6,5,34,2,{16}7,8,6h[8:1],,3,4,2h[8:1],,7-3[8:1],8,{8}6,
1,1h[8:1],{16}8,2,,7b/3b,,,{8}5,46,,
25,3h[8:1],{16}1>4[8:1],2,{8}8,1-5[8:1],{16},7,{8}1,8h[16:3],{16},6h[16:3],,,
7,5,,4pp4[4:1]/8,{8},3,2,1,1h[8:1],{16}3,2,{8}4-8[8:1],6>3[8:1],4,6,1,2,83,
7<4[8:1]/1>4[8:1],,1b/7b,,8,17,,
74,6h[8:1],{16}8<5[8:1],7,{8}1,8-4[8:1],{16},2,{8}8,1h[16:3],{16},3,2,4,2,5,2,
6pp6[4:1],{8},5,4,3,25,1,{16}7,8,5h[8:1],,3,4,1h[8:1],,7-5[8:1],8,{8}5-8[8:1],
4V25[4:1],2,4,1V72[4:1],7-4[8:1],,
,,
15,2,3h[4:1]/4,{24}4,5,6,{8}7-4[8:1],4-8[8:1],2,2-4[8:1],,
2-6[8:1]/1,8h[4:1],2>5[8:1],,
2<7[8:1],6h[4:1],2,,4,35,2,81,7h[8:1],{16}5>2[8:1],6,,6,{8}5,
7<4[8:1],8qq3[8:3],7,8,5h[4:1],,,2b/6b,,
81,2h[4:1],{24}1-5[8:1],8,7,{8}6-1[8:1],1,6,
2h[8:1],{16}8-3[8:1],7,{8}6,81,
2h[8:1],{24}4qq1[8:3],5,6,{8}7,4,8-5[8:1],,{8}8,,
{16}2-5[8:1],4,{8}3,8-3[8:1],7-4[8:1],8,7,1>4[8:1],82,
1b<6[16:1],{16},1b-5[16:1],{8},1b<2[8:7],{1},{4},8>3[8:1]/1,
{16}8b<5[16:1],,,8b-4[16:1],{8},8b<1[8:7],{1},{4},72,
{16}1b/8b,,3,2b/4b,,6,7b/5b,,
,,3,4,2,,6,5,7,,1-4[8:1]*-6[8:1],8,2,,{8}1b,,38,17,
{16}6b/5b,,,2b/3b,,,,8bz4[16:3]/4b,,,{8},,1b-5[8:1],,,
3b-8[8:1],,,7b-4[8:1],,,2b-6[8:1],,,
{16}5b-8[16:1],,,1b-4[16:1],,,7b-3[16:1],,,2b-5[16:1],,,
6b-1[16:1],,,4b-8[16:1],,,{8}7b>6[8:3],,,,,1,,8,,
24,3,65,7,4/5<8[8:1],{24}2,3,4,{8}5b,2-6[8:1],6>3[8:1],2,1-5[8:1],8,17,,
64,3<5[8:1],2/5,{16}6,7,{8}8,1-4[8:1]/2,34,18,5,
6/8pp3[8:3],,7,6,5h[4:1],,4,3b/7b,,
{8}18,2,65,7,4/5<8[8:1],{24}2,3,4,{8}5b,4>1[8:1],1-5[8:1],4,7-3[8:1],6,78,,
24,3,6/5>1[16:3],7,{16}8,7,6,5,8-5[8:1],7,6,,{8}81,3,
2/4>7[4:1],5,7p3[8:1]/4,6,5,,1b/8b,,
75,6,34,2,5/4>1[8:1],{24}7,6,5,{8}4b,7-3[8:1],3<6[8:1],7,8-4[8:1],1,82,,
35,6>4[8:1],7/4,{16}3,2,{8}1,8-5[8:1]/7,
65,81,4,3/1qq6[8:3],,2,3,4h[4:1],,5,6b/2b,,
{8}81,7,34,2,5/4>1[8:1],{24}7,6,5,{8}4b,5<8[8:1],8-4[8:1],5,2-6[8:1],3,21,,
75,6,3/4<8[16:3],2,{16}1,2,3,4,1-4[8:1],2,3,,{8}18,6,
7/5<2[4:1],4,25,3,4,{16}8,1,{8}2b/7b,,
{12}45,,1,8,2,7,3,4,2,6,5,7,
{24}1b,2,3,4,5,,8b,7,6,5,4,,{16}1b,7b,{8}3b,,,
4/6<3[4:1],,,,5,4,2-4[8:1]/6-4[8:1],8,2-8[8:1]/6-8[8:1],,26,,15,1-5[8:1]/5,
,8,8h[4:1],,{16}4,3,2,1,7,
6,5,4,8,1,2,3,5,6,7,8,5,4,3,2,{12}7,86,15,{8}4-1[8:1]/2,,
5b/4b,6h[8:1],7h[8:1],8h[8:1],2h[8:1],3h[8:1],4h[8:1],
5-3[8:1],,2-8[8:1]/5-7[8:1],1,2/5w1[8:1],,5,,
73,,28,1>7[4:1],8,7,,,8b,,1-3[8:1]*-4[8:1],1,1b-7[8:1]*-6[8:1],,
1b-5[8:1]*-4[8:1],,1b<1[8:27],{1},,8h[1:1],
{4},,,{8}81,3b/6b,,2-5[8:1],34,1b,,7-3[8:1],65,8b,,1-5[8:1],28,
1b>4[8:1]*<6[8:1],,1bw5[8:1],,1b,,3,24,6,75,2,14,7,
{16}8/5,7,6,5,1,2,3,4,5b,3b,6b,2b,7b,1b,8b>4[8:9]*<4[8:9],,{2},,,
{4},4h[2:1],6h[8:3],{8},3h[4:1],5h[4:1],,4h[4:1],6h[4:1],,
3,5,4,6-3[8:1]/2-7[8:1],,2b/6b,,
2/4<7[8:1],{24}1-5[8:1],2,3,{8}4b,1,
8<3[4:1],4,8,2qq7[8:3],,4,5,6h[4:1],,1,2b/8b,,
{8}35,7,65,3,2/4<7[8:1],{24}1,2,3,{8}4b,3>8[8:1],8-4[8:1],3,
5-1[8:1],6,57,,82,3,4/5>8[16:3],6,{16}7,6,5,4,7-3[8:1],6,{8}5,
78,1,2/8z4[4:1],8,4>2[8:1]*<6[8:1],4,,,1b/7b,,
64,2,34,6,7/5>2[8:1],{24}8,7,6,{8}5b,8-4[8:1],4<7[8:1],8,1-5[8:1],2,18,,46,35,
18,{16}6-1[8:1],5,,,65,,2,,3-8[8:1],4,,,43,,7,,1,2h[16:5]/8,,,
7,6,5,4,3,2,1-4[8:1]/5-8[8:1],84,37,26,,,,,
3b<6[8:1],7b,1b,5b,3b,,,8,{8}1,27,65,
3,2h[4:1]/4,{24}1,8,7,{16}6<1[8:1],,,5,{8}6,2,
34,6,{16}75,4,3,2,8qq5[8:3]/1,7,{8}26,1b/8b,1h[4:1],,,
24,3,{16}1-5[8:1]/2,8,7,6,{8}1b,7,
84,3,{16}24,5,6,7,18,2,{8}3<6[8:1]/7>2[8:1],15,
7bp5[16:9]/3bq5[16:9],,,,,,,,{24}4b/6b,3b/7b,2b/8b,
{1},,,,,,
