&title=666
&artist=RoughSketch
&first=-0.01
&lv_1=
&lv_2=
&lv_3=
&lv_4=
&lv_5=13
&des_1=Tane
&des_2=Tane
&des_3=Tane
&des_4=Tane
&des_5=Tane
&des=Tane
&inote_5=
(666){1},,,,
{2}8qq4[2:12]/4h[2:2],,,,{2}3h[2:2],,,,{2}2h[2:2],,,,{2}1,1,1,,
{2}1pp5[2:12]/5h[2:2],,,,{2}6h[2:2],,,,{2}7h[2:2],,,,{2}8,8,8,,
{2}3,3,4,4,{2}5,5,6,6,{2}3,3,6,6,{2}4,4,5,5,
{4}4,5,4,5,
4,5,4,5,{4}3,6,3,6,
3,6,3,6,
{4}3,6,2,7,
3,6,2,7,{4}3,6,2,7,
1,,,,
{4}1b,,1b,,
{6}2^4[4:1]/5,6,7,,,,
{6}2^4[4:1]/5,6,7,,,,
2^4[4:1]/5,6,7,,,,
{4}1b,,1b,,
{6}25,36,47,,,,
{2}8h[2:2],,1h[4:3],,
{4}1,,1,1,
7,7,3,3,
{4}5,5,2,2,
8,8,4,4,
{4}6,6,1,1,
5,5,3,3,
{2}7h[2:1],1h[2:1],3h[2:1],5,
{4}8,,8,8,
4,4,6,6,
{4}2,2,5,5,
{8}2b,3,4,,{4}6,6,
{8}2b,3,4,,{4}7,{8}2b,3,
4,,{4}8,{8}2b,3,4,,
{2}8h[2:1],2h[2:1],4h[2:1],6,
{4}8,,8,8,
4,4,6,6,
{8}4b,3,2,,{4}5,5,
8,8,7,7,
{4}2,2,1,1,
4,4,{8}7b,6,5,,
{3}2,4,3,7,5,6,
{4}1,,1,1,
4,4,2,2,
{4}6,6,4,4,
8,8,,1,
{2}1bw5[4:5],,,,{2}8,,{4}5,4,6,3,
{2}7b-5[4:1],1b-3[4:1],6b-8[4:1],4b-2[4:1],
{2}7b-5[4:1],1,6b-8[4:1],{4}3,3,
{2}7b-5[4:1],2b-4[4:1],6b-8[4:1],3b-1[4:1],
{2}7b-5[4:1],2,6b-8[8:1],{4}4,4,
{2}7b-5[4:1],3b-1[4:1],6b-8[8:1],2b-4[4:1],
{2}7b-5[4:1],3,{3}1,1,1,
{2}8,{8}2b,3,4,,{2}7-5[8:1],3,
{2}2-4[8:1],6,7,8,
{2},,7b-5[4:1],1b-3[4:1],
{2}6b-8[4:1],4b-2[4:1],7b-5[4:1],{4}1,1,
{2}6b-8[4:1],2b-4[4:1],7b-5[4:1],3,
{4}3,3,5,5,
1,1h[4:2],,7h[4:3],
{2},8,8,1h[2:2],
{2},8,8,7,
{4}1,,21,12,
,78,78,,
{2},,,,
{1}6h[2:1],5h[1:1]/6,4h[1:1],2h[4:3],
{4}2,1,2,1,
2,1,2,1,
{2}2,,,,
{2}7b/1b,,{4}2,4,3,4,
2,4,3,4,
3,4,3,4,
{4}2,4,3,4,
3,4,3,4,
1,4,3,4,
3,4,3,4,
{2},,{4}6,5,6,5,
7,5,6,5,
6,5,6,5,
{4}7,5,6,5,
6,5,6,5,
{2}8h[2:1],6h[2:1],4h[2:1],2,
{3}2b,,1b/8b,,7b,,
{4}7,5,6,5,
6,5,6,5,
7,4,5,4,
5,4,5,4,
7,3,4,3,
4,3,4,3,
{2}4h[2:1],2h[2:1],{4}1,2,1,,
{2}2h[2:1],1h[2:1],8h[2:1],7h[2:1],
{2}5,7h[2:1],{4}8,7,8,,
{2}8z4[2:3],1,2,,
{4}1,8,7,6,
5-7[4:1],4,3,2,
{4}1,8,7,6,
5-7[4:1],4,3,2,
{4}1,8,7,6,
5-7[4:1],4,3,2,
{4}1,8,7,6,
5-7[4:1],4,3,2,
{4}1,8,7,6,
5-7[4:1],4,3,2,
{4}1,8,7,6,
5-7[4:1],4,3,2,
{4}1,8,7,6,
5,4,3,2,
{2}15,6,48,3,
{4}5,4,3,2,
1-3[4:1],8,7,6,
{4}4,5,6,7,
8-6[4:1],1,2,3,
{4}5,4,3,2,
1-3[4:1],8,7,6,
{2}45,7,45,,
{4}3,4,5,6,
7-5[4:1],8,1,2,
{4}5,4,3,2,
1-3[4:1],8,7,6,
{2}45,3,45,7,
{2}18,,36,,
{2}2h[1:1],,{4}5,3,4z8[2:3],,
{2}3,3,2,,
{2}7h[1:1],,{4}4,6,5s1[2:3],,
{2}6,6,7,,
{2}2,2,{4}5,3,4z8[2:3],,
{2}3,3,2-6[2:1],,
{2}7,7,{4}4,6,5s1[2:3],,
{2}6,6,7-3[2:1],,
{2}1,1,2,2,
{2}3,3,4,4,
{2}8,8,7,7,
{2}6,6,5,5,
{4}3,6,3,6,
3,6,3,6,
{4}4,5,4,5,
4,5,4,5,
{2}46,57,56,24,
{2}2/3-6[4:2],,,,
{4}2b/6b,,1^4[4:3],,
{6}4h[12:1],5h[12:1],6h[12:1],7h[12:1],,,
{4}2b/6b,,1^4[4:3],,
{6}4h[12:1],5h[12:1],6h[12:1],7h[12:1],,,
{4}2b/6b,,1^4[4:3],,
{6}4h[12:1],5h[12:1],6h[12:1],7h[12:1],,,
{2}58,47,36,,
{4}7b/3b,,8^5[4:3],,
{6}5h[12:1],4h[12:1],3h[12:1],2h[12:1],,,
{4}7b/3b,,8^5[4:3],,
{6}5h[12:1],4h[12:1],3h[12:1],2h[12:1],,,
{4}7b/3b,,8^5[4:3],,
{6}5h[12:1],4h[12:1],3h[12:1],2h[12:1],,,
{2}41,52,63,,
{2}6qq1[2:6],1,1,1,
{2}1,2,3,4,
{2}3pp8[2:6],8,8,8,
{2}8,7,6,5,
{4}5,4,5,4,
6,3,6,3,
{4}7,2,7,2,
6,1,6V84[4:12],1v4[4:2],
{2},,,,{2},,,,
{2}8,6,4,2,
{2}8,6,{8}4b,3,2,,
8b,7,6,,
{4}1-5[1:14],,8,,
2,2,7,7,
{2}3,4,6,8,
{4}7,,7,,
4,4,6,6,
{2}2,2,3,3,
{4}4,,4,,
7,7,3,3,
{2}6,6,2,2,
{4}4,,6,6,
3,3,8,,
{2}7,6,4,2,
{4}8-4[1:14],,1,1,
7,7,3,,
{2}6,5,3,1,
{4}2,,3,3,
6,6,1,,
{4}7,1,7,1,
{6}6,,6,,6,,
{4}2,5,2,5,
2,,1,,
{2}1,3,6,7,
{2}5,3,1,7,
{2},,{8}1h[16:1],28,73,46,
5h[16:1],,,,
{6}4,6,4,6,4,6,
{4}4,6,4,6,
{6}3,7,3,7,3,7,
{4}3,7,3,7,
{6}2,8,2,{4}8,2,
{6}7,3,7,{4}3,7,
{8}2,3,4,5,
8,7,6,5,
{2}1,,
{6}7,1,7,1,7,1,
{4}6,2,6,2,
{6}5,3,5,3,5,3,
{4}4,2,4,2,
{6}5,3,5,{4}2,6,
{6}4,6,4,{4}7,3,
{8}7,6,5,4,
1,2,3,4,
{2}8,,
{6}7,5,6,4,5,3,
{4}4,3,5,2,
{4}6,1,7h[4:4],8,
,,,,
{6}2,4,3,5,4,6,
{4}5,6,4,7,
{4}4,8,2h[4:4],1,
,,,,
{6}1,2,1,{4}2,2,
5,4,6,,
{6}8,7,8,{4}7,7,
4,5,3,,
{8}8h[8:4]/2,3,4,5,
6,,,,
1h[8:4]/7,6,5,4,
3,,,,
{2}2h[2:1],4h[2:1],6h[2:1],8,
{4}1,1,1,1,
1,1,1,1,
1,1,1,1,
1,1,1,1,
{4}1,1,1,1,
1,1,1,1,
{2}2b/8b,3b/4b,5b/6b,7b/1b,
{4}8,8,8,8,
8,8,8,8,
8,8,8,8,
8,8,8,8,
{2}17,38,
{6}7^5[4:1]/4,3,2,,,,
7^5[4:1]/4,3,2,,,,
74,36,52,,,,
4b,
{1},,,,,,,,E
