&title=ダイジョブですか?
&artist=cosMo@暴走P feat.初音ミク
&first=0.05
&des=Naru
&lv_5=14
&inote_5=(155)
{1},{4}1,1,{8}1,1,8/2,3,7/5,7h[4:1]/5h[8:7],{4},{8}A8,A1,,,
{8}1-7-4[8:3],3,{4}3-8[8:1],,{16},7/3,{8},4/2,4bh[4:1]/3bh[4:1],{4},E1,E5f,
{16}4,2,5,3,3,,6,5,6,5,7,5,7x>3[4:1],5b,,,3<7[4:1],,,,{4}7>3[4:1],3>6[2:1],4,4,
{8}4-2-8[8:1],3,4/5,6,{16}5,1,5,2,{8}5<1[4:1],5x,1>5[4:1],C,5<1[4:1],,1z5[4:1],2,3,3,4h[8:1],6xh[8:1],
{16}3,,4,6,1,,5b,,
(153)
{12}2,6,6,3,7,7,4,8,8,2,2,6,6,4,7,2x,4,7x,5x,5,1,1,3,3,
(220)
{4}5bh[2:1],,A7/D8/E8f,,2h[2:1],,A6/D6/E6,1,1h[2:1]/5,,A5/D5/A4/E5f,,E7/B6/B7/B2/E3/B3,,Ch[2:1],,
(171)
{32}1,2,3,4,5,6,7,8,{24}1,2,3,4,5,6,{12}8,3x,,{4}6xh[8:5],,{8},B2,,,A1,,
(224)
{4}7/3h[4:1],{8}7,4,4,,6,8/1,{16}2,1,2,1,{8}2x>5[8:1],1,{8}2,,7<4[8:1],7,3-8[8:1],3,3,,{16}5,2,5,2,6,3,6,3,{8}7x,7,2,1,2x-5[8:1],,2-8[8:1],,2,,5,6/4,
{4}6/4,{16}3,,8b,,{8},7,6/2,1,{16}4,3,4,3,{4}4-8[8:1],{8}4,2,{16}1,,1,,8,2,8,2,7,3,7,3x,{8}6x-1[8:1],6x,4-8[8:1],4x,7-2[8:1],,,,
{16}3,4,3,,8,,3x,,6x,5,6,,2x,,2,,{8}7,2,,7,2x-7b[8:1],{16},5,2,,,,
{16}6x,5,7,,1x,,1,,4,3,4,3,5,2,5,2,{4}6bx,6b>7[4:1],
{24},,,{16},,,,,,4,5,4,5,4,5,4,5x,3,6,3,6,3,6x,2,7,2,7,2,7,2,7,2,7,1x,8,1,8x,1,8,1,8,
{4}1b-3[8:1]*-7[8:1],1w5b[8:1],1,7/3-8[8:1],5-7[8:1]/3,5-1b[8:1],5,7b,
{8}3-8[8:1],3,5x-1[8:1],5,4x-8b[8:1],4,6-2[8:1],6,1-5[8:1],1,4x-7[8:1],4,2-5[8:1],,
{16}2b,,7,8,1xh[4:1],,3,4x,5h[8:1],,8,7,6x,,5q1[8:1]/6p2[8:1],,,,6/5,,{8},,7/3,7,7v1-6[4:1]/3v1-4[4:1],,,,
{8},5x,5,4/2,3,{4}7h[4:1]/5,8,{8}6/1,8,5/2,4x,4,2,2,
{16}6b,5,6,5,7,,,,2b,1,2,1x,{8}3,6,3-7-5[8:1],5-1[8:1],,8xh[4:1],,,E7h[8:1]f,,
{8}3,,5x/3,3x,6/3x,3,3-7[8:1],,3,8x-4[8:1],1,8/2x-5[8:1]*-7[8:1],,A2,,3,
{16},,6,6,{8}4x-8[8:1],4x,7,7<5[8:1],,7/2,2,3x,3x-7[8:1],7-2[8:1],,6,,7,7x,6/2,1,1,5x,5,4/3,4/3x,2-8[8:1],2,6<4[4:1],,6b/C,,,,
{4}1-6[8:1],1/4-8[8:1],{8}4/3-1[8:1],3,6v4[4:1]/3,,{4}4<8[4:1],8>4[4:1],4x>5>5b[2:5],,{1}1xbh[4:9],,{4},,
{16}5,2,5,2,5,2,5,2,5-7[8:1],,,,{4}5x-2[8:1]/3,5,8,
{8}7b,,3,3,6h[4:1],4,4,3,2,6,,7-5[8:1]/8,,7/1,1,2,3,3,,5,6/4,5x/3,6/4x,5/3,6-2[8:1]/4x-2[8:1],,6-8[8:1]/4-8[8:1],,4b/6b,,,2,{16}2h[4:3],,5-8[8:1],,,,5,,{4},{8}7,7,4,4,1,1,5>1[4:1],,6,7,{4}8w4[8:1],8b,{16}E3,B2,,,{4}7xh[4:1],{8}4,4,3,3,2,2,
{8}1b,,,8,7x<5[8:1]/3,,2/7-3b[8:1],,2x/7>1[8:1],,7-4[8:1]/2b-5[8:1],,7/2x,,3,,6x/4x,8x/2x,1bx-4[8:1],,{4}1/8,1b,8xh[8:1],{8}7x/1xb,4x/3x,6xb/1x,5x/2xb,7x/8bx,,4x-7[8:1]/3x,,2-5[8:1],,8x,8h[8:3],,4,4,,6,6,2,2,8-6[8:1]/1,
,3,,4/3-1[8:1],,7x,8,8x,8,8x,8,{16}8,2,8,2,8,2,8,2x,8x,3x,7x,4x,6xb,,,,
(225)
{8}2,2,4,4,5,5,7,7,
(230)
{8}8,8,6,6,4,4,3,3,
(250)
1,1,3,3,5,5,7/1x,7,
(252)
{4}2x/8,1/5x,4/8,5/1,
(255)
8b/4b<8z4[4:7],1xh[4:1],,2h[4:1],,3xh[4:1],,4z8<4[4:5],,3h[4:1],,2xh[4:1],,1z5[4:3],,7,5x>1[4:1],1x<5[4:1],5x>1[4:1],1b<6[4:1],6x>2[4:1],2x<5[4:1],5x>1[4:1],1b<5[4:1],,{8}D5,A4,{16}D4,A3,D3,A2,D2,A1,D1,A8,{1}D8/E8f/A7,
{4},{8}6h[4:1]/2,2,{4}2-4-1[2:1],,{8},6-3<5-8[2:2],{4},,,{8},1dw,2xh[8:3],,{8},A6,,,D6,,,2-5-7-3-8[4:5]/5,,,{4},7xh[4:1],,{8}5,5,5,,5,,
{4}5b-2-6<8-4[2:2]*-2-6<8-4[2:2]/3,,8x-4[2:1],1,,2h[8:1],{4},{8}3,3,3x,3,,3h[4:1]/4h[4:1],
{4},2-8[8:1],{8},5,5-7[8:1],,{4}5-1[8:1],{8},7x,,,2,2,2x,8,1>3[8:1],,1xq4[2:1],,,6x,,,5-1[8:1],,,,3,2,2x,1x,8x,7,
8x/1x,,
{4}2,3,4,{8}5,6,7x,8x,1x,7x,
(315)
{8}2h[8:1],6h[8:1],3h[8:1],5xh[8:1],4x,5x,4,5,4,5,4,5x,4x,{16}5xh,6xh,7xh,8xh,1xh,2xh,3xh,4xh,5xh,6xh,7xh,8xh,1xh,2xh,
(319)
{1}3xbh,,,,,{8},7x/2x,,,,,8x/1x,,,,,2/3,,,,,6/5,,,,,3x-1[8:1],,6x,,,6x-1b[8:1],,3xq8[4:1],,3,,,,,,
(252)
A5,,A1,,
(254)
{8}3v8[8:1],,6,6x,6,,7-4[8:1]/3,4-6-1b[4:1],,,2,2,2,,1b/3b,,2v5[8:1],,7,7,7/8x,,
{16}1,,7b,6,5,,8bx,1,2h[4:1],,6,5,{8}4-7[8:1],3,4/2x,,1w5[8:1],,1b,,6x,7x/5x,3,2/4x,1-5-1[4:1],,1/7,,6,,8,8b,,,5/3,2,7/4,6,8-5[8:1]/5-2[8:1],,8b/5bx,,1x,4x/2x,4/2,,C,,3x,6x,4xw8[8:1],5x/3x,4b,,2,2x,6x,3x,5xw1[8:1],4x,5b,,7,7,1,8,1xw5[8:1],8/2x,1b,,,2,{12}5,3x,3,6,6,6x,{8}2x,2x,2x<7[8:1],,2b,,,4x,5x/3x,5x/3x,6x/2,6/2x,{16}1b/7,8,7,6,{24}5,4,3,2,1,8,7,6,5,4,3,2,1,8,7,6,5,4,
{1}3b/A8h[4:7],,{4},4/3-8[8:1],{8}7/3,6,5>2[8:1],,5/8x-4b[8:1],,8-6[8:1]/1-5[8:1],,8-4[8:1]/1-3[8:1],,8-5[8:1],,8b/1bx,,3x>8[8:1],,5/3,5,5<8[4:1],,1,2,3x,4x,5xh[4:1]/1xh[4:1],,,,3-7[8:1],3,5-1[8:1],5,3-8[8:1],3,6-2[8:1],6,1-5[8:1],1,7-2[8:1],7,3,,4,,{8}4,{16}7b,5,,6,2,2,4,,{8}4,,8,8>4[4:1],,5,6,7,,8b,4,{16}6b,5,6,5,6,,2b,4,3,4,3,,7,,7,,{16}7/1,2,3,4,5,6,7,8,{24}1,2,3,4,5,6,7-3[8:1],8,1,2,3,4,{1}5/7b/Cf,{4}E1,,1,,2,3,4,5,{16}7,8,7,,{8},6/1,,7/8,{8},,3/Cf,1b,
