&title=Ouvertüre[INFERNO]
&artist=USAO / DJ Genki / 河瀬茉希
&first=0
&des=Soxps
&lv_6=14+
&inote_6=(200)
{1},,
{4}3h[4:15]/4h[4:3],,,,5h[4:3],,,,6h[4:1],,7h[4:1],,8h[4:3],,,,
{4}7h[4:15]/5h[4:3],,,,6h[4:3],,,,8h[4:1],,1h[4:1],,2<4[4:2],,,,
{8}6h[4:1]/2-4[8:1],,2,,7h[4:1]/5-1[8:1],,5,,
{8}8h[8:1]/2,,7h[8:1]/3,,6h[8:1]/4,,5,4,
{8}3h[4:1]/7-5[8:1],,7,,2h[4:1]/4-8[8:1],,4,,
{8}1h[8:1],,3h[8:1]/4,5,6/1h[8:1],,2h[8:1]/1,8,
{8}3/7,7,64,6,{16}3b,5,3,5,2b,4,2,4,
{8}1b-5[8:1]*-6[8:1],,1b,,7b-3[8:1]/8b-3[8:1],,7bV52[16:7]/8b<1[4:2],,
{8}8b,,,,,,6,,5h[8:1]/3,3,4h[8:1]/2,2,3h[8:1]/1-5[8:1],,8/1b,,
{16}74,,6,5,6,,37,,6,5,6,,6,5,7,,
{8}8b-4[8:1]/1b-3[8:1],,8b-6[8:1]/1b-5[8:1],,8b/1b,,2h[4:1],,
{24}8b,7,6,5h[4:1],,,,,,1b,2,3,4h[4:1],,,,,,8b<3[24:5],7<2[24:5],6>1[24:5],5h[8:5],,,
{8},,,,8,,2,2h[8:1],
{24}8b,7,6,5h[8:1],,,{8}3,2/4b,,1/3b,,{24}2/4b,5,6,7,8,1,2,3,4,5,6,7,{32}8,1,2,3,4,5,6,7,8h[8:2],,,,{8},2,
{8}3b/6h[4:3],3,3,3,4,4,5,5,5h[4:3]/6b,6,6,6,7,7,8,8,2b-5[8:1],7b-4[8:1],2b,7b,,1b-5[8:1]/8b-4[8:1],,1b-3[8:1]/8b-6[8:1],,1b-5[8:1]/8b-4[8:1],,1b/8b,,3h[8:2]/6h[8:2],,,
{16},,27,,1b/8b,,,,46,,2,1,3,,5,4,
{16}6-8[8:1],,5,,1-5[8:1]/6,,2,,1b>4[8:1]/6b<8[8:1],,,,16,,,,
{16}56,,6,5,7-3[8:1],,1-6[8:1],,7,,1>4[8:1],,5,,1,,
{16}6,,7,,8h[8:1],,,,7h[8:1]/4,,,,6h[8:1]/3,,,,
{16}5<8[8:1]/2>4[8:1],,,,5b/2b,,,,1<6[8:1]/5>3[8:1],,,,1b/5b,,,,
{16}25,,2,4,3,,5b-1[8:1]/4,,,,4b-7[8:1]/5-2[8:1],,,,4b/5b,,
{16},,1/8-4[8:1],,2,,3h[8:1],,,,1-5[8:1]/8,,7,,6h[8:1],,
{16},,37,,3h[8:1]/7h[8:1],,,,2b,8,3,7,{32}4,5,6,7,8,1,2,3,
{16}4w8[8:1],,,,4b,,,,26,,7,8,6,,4,5,
{16}3-1[8:1],,4,,8-4[8:1]/3,,7,,3b>1[8:1]/8b<5[8:1],,,,38,,,,
{16}34,,2,,15,,6,,47,,6-2[8:1],5,7,,4b-8[8:1]/6,,,,1bw5[8:1]/4,,,,1b,,,,37,,2h[8:1]/6h[8:1],,,,
{16}1b-5[8:1]/7b-3[8:1],,2b/6b,,1b/7b,,,,2-5[8:1]/6,,7,,2b/8,,,,
{16}7-4[8:1]/1-5[8:1],,,,1b/7,,,,7-3[8:1]/2,,1,,7b/8,,1,,
{16}2b-8[8:1]/6b-4[8:1],,,,2bv5[8:1]/6b-1[8:1],,,,2b/6b,,,,4b/8b,,48,37,
{16}2b-7[8:1]/6b-3[8:1],,,,2b-5[8:1]/6b-1[8:1],,,,2b/6b,,,,37,,,,
{4}2h[4:2]/6h[4:2],,,,{8}3b/7b,1b/5h[8:7],,,,,,,
{1}4w8[4:27],,,,,,,
{8},,,,2h[4:1]/6h[4:1],,,,
{8}3h[4:1]/4b,,4,3,4/3,,53,,
{8}3h[8:1]/5,,3h[8:1]/6,,3h[8:1]/7-5[8:1],,3/7,,
{8}2h[4:1]/4b,,4,2,24,,52,,
{8}2h[8:1]/5,,2h[8:1]/6,,2h[8:1]/7-5[8:1],,27,2,
{8}1h[4:1]/4b,,4,1,14,,41,,4b/8h[4:1],,4,8,84,,48,,5b/1h[8:1],5,6b/2h[8:1],6,7b/3h[8:1],7,8b/4h[8:1],8,1b/5h[4:2],,,,1b-5[8:1],,1b>4[8:1]/5<8[8:1],,
{16}1b,,,,,,,,4b,8,4b,8,3b,7,3b,7,2b,6,2b,6,1b,5,1b,5,1b,,,6,6h[8:1],,2,3,
{16}4b-8[8:1]/7-5[8:1],,,,7b/4,,,,2b-6[8:1],,,,2b,,1,8,
{16}4-8[8:1]/7b-5[8:1],,,,4b/7-3[8:1],,,,7b,,,,15,,,,
{8}7bV53[8:2]/3b,,3-7[8:1],2,1,,2-5[8:1],6,
{8}2V84[4:1],7,2,,7-5[8:1]*-3[8:1],,7,,
{16}2,4,2,4,3,5,3,5,4,6,4,6,5,7,5,7,5,4,3,2,7,6,5,4,1h[4:1],,,,5,,,,
{24}1b/5h[8:2],2,3,4,,,,,,1b/5h[8:2],8,7,6,,,,,,1b>6[24:5]/5h[4:3],2>7[24:5],3<8[24:5],4<1[24:5],,,
{16},,,,,,,,2,,,,3,,4,,
{24}4/8b,7,6,5h[8:1],,,2,,,2b/6,3,4,5,,,8b/3,7,6,5,,,1b,2,3,4,5,6,7,8,1,2,3,4,{32}5,6,7,8,1,2,3,4,{8}5h[4:1]/6,,6,7b/5,7,74,7,73,7,72,7,1b/7,1,16,1,15,1,14,1,
{8}1b/3b-7[8:1],,3/1,1b-5[8:1],,8b-3[8:1]/1b-3[8:1],,1b-6[8:1]/8b-6[8:1],,1b-5[8:1]/8b-4[8:1],,1b/8b,,3h[8:3]/6h[8:3],,,
{16},,3b/6b,2b/7b,1b/8b,,,,3h[8:1]/5,,7,,4h[8:1]/6,,8,,
{16}24,,2,1,3h[8:1],,5,4,7b-4[8:1],,8,,17,,2,,
{16}3V52[4:1],,5,,3,,6,,7,,7-3[8:1],8,6,,8b/7,,
{16},,14,,2h[8:1]/5,,,,3h[8:1]/6,,,,4h[8:1]/7,,,,
{16}8-4[8:1]/5,,7,,3/8b,,2,,1-5[8:1],,2,,1b/6,,7,,
{16}4b/8,,3,3,6,,{24}5/1b,2,3,4,,,3/7b,6,5,4,,,{32}1b,28,37,46,
{16}5,,1-5[8:1]/2-5[8:1],,38,,1b/2b,,,,7-3[8:1]/8-4[8:1],,16,,7b/8b,,,,15,,16,,17,,{24}1,2,3,8,7,6,{32}1,2,3,4,8,7,6,5,
{16}1bw5[8:1]/4,,,,1b,,,,7h[8:1]/3,,1,,6h[8:1]/4,,1,,
{16}5/3,,3,4,2,,2,1,3b-5[8:1],,5-1[8:1],,3,,6,,
{16}7v4[8:1],,8,,17,,2,,3-1[8:1]/5,,2,,3/6,,7b-3[8:1],,
{16},,7-5[8:1]/8b-4[8:1],,,,7b/8,,,,2,1,3h[8:1],,6,5,
{16}7-3[8:1],,68,,7b,,,,1-5[8:1]/2-4[8:1],,8,,1b/2b,,,,
{16}7,,7-3[8:1],8,6,,7b/2-6[8:1],,,,2b/7,,,,1/8,,
{16}2b>4[8:1]/7b<5[8:1],,,,2b-6[8:1]/7b-3[8:1],,,,2b/7b,,,,1b/8b,,18,27,
{16}3b-7[8:1]/6b-2[8:1],,,,6b-4[8:1]/3b-5[8:1],,,,6b/3b,,,,2h[4:1]/7h[4:1],,,,
{1},
{8}2b/7b,1b/8b,,,{24}1,8,1,8,1,8,1>8[4:7]*<2[4:7],8,1,8,1,8,
{1}1b,,
{16}7h[8:1]/3,,4,,6,,2-4[8:1]/5-1[8:1],,,,2-6[8:1]/5,,,,2/8-4[8:1],,
{16},,48,,3h[8:1],,,,2/6,,34,,1b/7b,,,,
{32}2-6[8:1]/5h[4:1],3,4,,6,7,8,1,2b,,,,,,,,7-3[8:1]/4h[4:1],8,1,2,3,,5,6,7b,,,,,,,,
{16}2b/8,,1b,1b,1b,,2b-4[8:1]/8b-4[8:1],,,,2b-6[8:1]/8b-6[8:1],,,,2b/8b,,
{16},,5-1[8:1]/3,,4,,5/7b,,,,5-1[8:1]/7,,6,,3b/5,,
{16},,2,,25,,26,,1,7,2,6,{32}3,4,5,6,7,8,1,2,
{16}3bv8[8:1]/7-4[8:1],,,,3b/7b,,,,26,,7,1,6h[8:1],,3,4,
{16}2h[8:1],,5,,78,,45,,2b/8b-4[8:1],,,,18,,,,
{16}2h[8:1]/6,,6,5,6,,4-8[8:1]/7-5[8:1],,,,7-3[8:1]/4,,,,1-5[8:1]/7-5[8:1],,
{16},,1b-3[8:1]/7b-3[8:1],,,,1b/7b,,,,45,,6,,7,,
{16}8b/2,,6,5,6,,7/3,,6b,5,6,5,7,4,6,,
{16}2b/5,,3,4,3,,1/7,,3b,4,3,5,2,4,2,6,
{16}1b>4[8:1]*<6[8:1],,,,1bw5[8:1],,,,1b,,,,3b/7b,,2,1,{32}3b,4,5,6,7,8,1,2,3/6b-2[8:1],5,4,3,2,1,8,7,6b/2w6[8:1],,,,,,,,,,,,,,,,
{8}(195)4h[8:2]/8h[8:3],,,,(192.5)3h[8:2]/7h[8:3],,,,2h[8:2]/6h[8:3],(180),,,(170)1h[4:1],,(165)8,7,6,5,4,(150)7,(135)6,5,(122.5)4,3,(120)6,5,4>6[4:6],3,2h[4:6],,,,,,,,,,,,E
