&title=Nyarlathotep's Dreamland
&artist=Raimukun
&first=-0.02
&des=CAl & The Faceless
&lv_5=14+
&inote_5=(200)
{8},,,,,,,,,,,,,,,,3,5,4,6,1,2,6,7h[2:1],,5,4,3,2,1,8,7,6,4,5,3,8,7,3,2h[2:1],,4,5,6,7,8,1,2,6,4,5,3,8,7,3,2h[2:1],,4,5,6,7,8,1,2,3,4,8,2,7,1,5,6,,7qq8[8:3]/3qq4[8:3],,,,,,,
{16}2/6,,7,5,6,,2,4,3,,6,8,7,,2,1,2,,2h[4:1],,4,,4h[4:1],,6,,6h[4:1],,8,,8,,6/5,,3,4,3,,6,5,6,,2,1,2,,7,8,7<4[4:1],,7,,4>1[4:1],,4,,1<6[4:1],,1,,4,,4,,
{16}4,3,2h[8:1],,5,6,7h[8:1],,1,2,3h[8:1],,8,7,6h[8:1],,2h[16:1],,4h[16:1],,3h[16:1],,5h[16:1],,1,4,2,5,3,6,4,7,1,2,3,4,8,7,6,5,1,2,3,4,1,8,7,6,5-1[8:5],,,,,,5,5,5,,5,,5,,,,
{16}2b/7b,,3,5,4,6,5,7,4,3,2,1,7,6,5,4,1,2,3,4,6,7,8,1,3,4,5,6,7,8,1,2,3b/6b,,7,1,8,2,1,3,8,7,6,5,3,2,1,8,6h[16:1],,6h[16:1],,3h[16:1]/5,,3h[16:1],,
{24}8b,7,6,2,3,4,7,6,5,1,2,3,
{16}4b/8,,,,8,7,6,5,1,8,7,6,2,1,8,7,3,4,3,4,3,4,3,4,2h[16:1]/5-7[8:1],,2h[16:1],,3h[16:1]/5-1[8:1],,3h[16:1],,5/4,,3,4,5,6,7,8,1,2,3,4,1,2,3,4,5b/2b,,3,4,3,4,3,,4b/7b,,6,5,6,5,6,,1b/8b,,,,7,6,5,4,1,2,3,4,7,6,5,4,2,1,2,8,3,7,3,6,
{12}4/5,3,2,1/8,7,6,
{16}5b/4b,,,,4,8,3,7,2,6,1,5,2,6,3,7,4,8,4,7,4,6,4,5,4,3,2,1,8,7,6,5,4b-8[16:1]/8b-4[16:1],,,,,,,,2b-6[16:1]/6b-2[16:1],,,,,,,,3b-6[8:1]/7b-2[8:1],,,,3-1[8:1]/7-1[8:1],,,,3b-5[8:1]/7b-5[8:1],,,,3/7,,,,1b,8,1,8,1b,8,1,8,1b,8,1,8,1b-5[8:1],8,1,8,1b>8[2:1],,,,
{8},,,,,,3h[8:1]/5h[16:3],,,6h[8:1]/4h[16:3],,,4h[8:1]/7h[8:1],,
{16}8h[16:3],,,1h[16:3],,,2>7[4:1],,6h[4:1],,
{8},,,2h[8:1]/8h[16:3],,,7h[8:1]/1h[16:3],,,3h[8:1]/8h[8:1],,
{16}4h[16:3],,,5h[16:3],,,6<3[4:1],,2h[4:1],,
{8},,,7h[16:3]/8h[8:1],,,6h[16:3]/5h[8:1],,,4h[8:1]/7h[8:1],,
{16}3h[8:1],,,2h[8:1],,,1h[8:1],,8<4[8:1],,,,8,,
{8},2h[16:3]/1h[8:1],,,3h[16:3]/4h[8:1],,,2h[8:1]/5h[8:1],,
{16}6h[8:1],,1,7h[8:1],,2,8h[8:1],,3h[8:1],,4h[8:1],,5h[8:1],,6,,
{16}1>4[8:1],,,,8,,7<4[8:1],,,,8,,1>4[8:1],,,,8,,7<4[8:1],,7b,,,,8-5[8:1]*-3[8:1],,,,8,,,,
{16}2>5[8:1],,,,1,,8<5[8:1],,,,1,,2>5[8:1],,,,1,,8<5[8:1],,8b,,,,1-5[8:1]*-3[8:1],,,,1,,,,
{16}6<1[8:1],,,,5,,4>1[8:1],,,,5,,6<1[8:1],,,,5,,4>1[8:1],,4b,,,,8w4[8:1],,,,8,,,,
{16}2b/6b,,,,4,5,4,5,4,6,4,6,4,7,4,7,4,8,4,8,3,7,3,7,2,6,2,6,1,5,1,5,
{16}1,2,3,4,5,6,7,8,
{32}1,2,3,4,5,6,7,8,1,2,3,4,5,6,7,8,
{16}1h[4:1],,,,,,,,4,5,6,7,8,
{16}1,2/7,3/6,4-8[8:1]/5-1[8:1],,,,4b/5b,,,,
{16}2,3,4,5,7,6,5,4,1b,,6,5,6,5,6,5,8,,3,4,3,4,3,4,1,,,,7,5,6,4,5,3,4,2,5,1,6,3,8b,,3,4,1b,,6,5,8b,,3,4,7b,,6,5,1bp4[8:1]*q6[8:1],,,,1-7[8:1],,,,1-3[8:1]*-5[8:1],,,,1,,,,
{16}4-6[8:1],,,,4-2[8:1]*-8[8:1],,,,4<7[8:1]*>1[8:1],,,,4,,,,4b/8b,,,7h[16:3],,,6,,1b/5b,,,2h[16:3],,,3,,
{12}7,5,6,2,4,3,
{32}8b-4[150#8:1],7,6,,,,8b,1,2,,,,8b,,,,,,,,1,,8,,2b/7b,,,,,,,,6/4,,,,3,,,,1w5[8:1]/2,,,,,,,,1,,,,,,,,
{16}7h,,2h,,6h,,3h,,5h,,4h,,
{4}8-5[8:1]*-6[8:1],8-3[8:1]*-2[8:1],8w4[8:1],8b,
{12}6,7,8,3,2,1,
{16}8,7,6,5,
{32}1,2,3,4,5,6,7,8,
{16}1b,,1,,2,,2,,3,,3,,4,,4,,5/6,,5/6,,7/8,,7/8,,
{12}1/5-8[8:1],1/5,1/5,1-4[8:1]/5,,,
{16}1b>8[4:6],,,,,,,,,,,,,,,,,,,,,,3h[8:1],,,,3,,3,,,,
{4}1,2,3,4,5,6,7,8-5[8:1],8<1[2:3],
{16},,,,,,,,,,,,,,,,,,6h[8:1],,,,6,,6,,,,
{4}8,7,6,5,4,2,3,1-5[8:1],
{16}1>8[4:6],,,,,,7,,6,,,,5,,,,,,,,,,3,3,3,,3,,3,,,,1h[8:1],,,,3h[8:1],,,,4h[8:1],,,,2h[8:1],,,,6h[8:1],,,,5h[8:1],,,,7h[8:1],,,,8h[8:1],,,,
{4}7-3[8:1],7/8,6-2[8:1],5/6,4-8[8:1],3/4,1-5[8:1],1/2,
{8}6/2,6/2,7/3,7/3,8/4,8/4,1/5,1/5,
{4}2<4[2:1]/6>8[2:1],,,,
{16}6,5,6,7,6b,,4,5,3,5,4,5,3,5,4,5,2b,5,4,5,3,5,4,5,7b,5,4,5,3,5,4,5,1b,,7,6,5,4,3,2,8,7,6,5,8,1,2,3,5,4,5,4,6b,4,5,4,7b,4,5,4,8b,4,5,4,1b,8,7,6,4,3,2,1,6,8,6,8,7,2,8,1,7<4[8:1],,7,,
{32}8b,1,2,3,
{16},,2>5[8:1],,2,,
{32}1bq2[4:1],8,7,6,
{16},,1b<5[4:1],,,,,,,,3,,3,,4-1[8:1],5,4,5,4b/6-3[8:1],,7,,2>5[8:1]/6b,,,,2b/7-3[8:1],,6,,7b/1b,,,,
{16}6/5,,6/5,,6/4,,6/4,,6/4b,3,6/2,1,6/8,1,6/2,3,4/5,,4/5,,6/4,,6/4,,6b/4,7,8/4,1,2/4,1,8/4,7,6/4,,6/5,,6/7,,6/8,,6/1b,2,6/3,4,6/5,4,6/3,2,1/8,,1/7,,1/6,,1/5,,1/4b,5,1/6,7,1/8,7,1/6,5,
{16}3,4,3,4,1,8,1,8,5,6,5,6,1,8,1,8,2,1,8,7,1,8,7,6,8,7,6,5,7,6,5,4,1,8,1,8,1,8,1,8,
{24}1b,8,1,8,1,8,1-6[16:1],8,1,8,1,8,
{4}1b,,
{16}5,7,4,6,3,5,2,4,1h[2:1],,5,,4,,5,,6h[2:1],,3,,4,,3,,4,,2,,1/8,,7,,5/6,,4,,3/1,,2,,8,7,6,5,4/1,2,3,4,5/8,7,6,5,4/1,2,3,4,6,5,6,5,7,8,7,8,6b,5,4,3,2,1,8,7,6b/2h[8:3],,7,,8,,7h[8:3],,3,,4,,3h[8:3],,6,,5,,6,,1/8,,2,,3/4,,5,,6/8,,7,,1b,2,3,4,5,6,7,8,4b,3,2,1,8,7,6,5,
{24}1b,2,3,7,6,5,2,3,4,8,7,6,
{16}1b/5b,,,3b/8b,,,2b/4b,,1-4[8:1]/6-3[8:1],,8,7,6b/1b,,,,8h[8:1],,7h[8:1],,6h[8:1],,5h[8:1],,4h[8:1],,3h,,2/1,,8-6[8:1]/7,,8-2[8:1],,8-4[8:1],,,,,,
{16}3b,2,1,8,5,6,7,8,2,3,4,5,1,8,7,6,4b,5,4,5,1,8,1,8,2b,7,2,7,3,6,3,6,
{12}2b,1,2,7b,8,7,3b,4,3,6b,5,6,2b,2,2,8b,8,8,6b,6,6,4b,4,4,
{12}2b/6,2,2,3b/7,3,3,4h[6:1]/8b,8,8,1b/5h[6:1],1,1,
{16}2b/6b,1/5,8/4,7/3,6/2,5/1,4/8,3/7,
{24}2/6,1,8,7,6,5,
{32}4/1,8,7,6,5/1,4/8,3/7,2/6,
(133.33)1v4[16:1]/5v8[16:1],,,,,,,,
(200){4}5bq7[4:13]/1bq3[4:13],,,,,,,,,,,,,,,,
{8}3,5,4,6,2,7,5,4,,6,7,8,1,2,3,4,7,1,8,2,6,3,1,8,,3,2,1,4,6,5,8w4[8:11],
