&title=(原口沙輔は鬼畜なのか?)最終鬼畜妹フランドール・S
&artist=原口沙輔
&first=0.02
&des=R
&lv_5=14?
&inote_4=(200)
{8}2-6[8:1],,,,6,,,,
&inote_5=(200)
{1},,,
{64}8x,1x/D8,D2`7x,2x/D7,D3`6x,3x/D6,D4`5x-8[32:49],4x-1[32:15]*-1[32:15],
{16},,,,,,,,,,,,,,
1x-4b[8:5],,,,,,,,,,,,,,,,
Ch[16:5],,,,,7xh[16:3],,,5h[4:1],,,,6>4[8:1],,,,
Ch[4:1],,,,6xh[4:1],,,,5-3[8:1],,,,,6<8[8:1],,,
Ch[16:5],,,,,7xh[16:3],,,5h[4:1],,,,6>4[8:1],,,,
Ch[4:1],,,,6xh[4:1],,,,5-3[8:1],,,,,6<8[8:1],,,
Ch[16:5],,,,,7x,7xh[8:1],,5v3[8:1],,,,6>4[8:1],,,,
Ch[4:1],,,,6xh[4:1],,,,2v8[8:1],,,,,6>4[8:1],,,
Ch[16:5],,,,,7x,7xh[8:1],,5v3[8:1],,,,6>4[8:1],,,,
Ch[4:1],,,,6xh[4:1],,,,2h[16:3],,,,,6>3b[8:1]/2<7b[8:1],,,
2b/6b,,,,,,,,,,,,,,,,
,,,,E5,,,,,,,,,,,,
,,,,E6,,,,E5,,,,E4,,,,
,,,,E5,,,,,,,,,,,,
,,,,E6,,,,E5,,,,E4,,,,
,,,,E5,,,,,,,,,,,,
36,,5,,4,,6,,3,,5,,5,,4,,
6,,3,,5,,4,,6,,5,,6,,4,,
7b,,,,3h[4:1],,4,,6h[4:1],,5,,4,,,,
34,,,,5h[4:1],,6,,4h[4:1],,3,,5,,,,
56,,,,3h[4:1],,4,,6h[4:1],,5,,4,,5,,
34,,,,5h[4:1],,6,,4h[4:1],,3,,5,,6,,
4h[8:1]/8h[8:1],,,,6,,5h[8:3],,2,,1h[8:1],,,,,,
1h[8:1]/5h[8:1],,,,3,,4h[8:3],,7,,8h[8:1],,,,,,
4-1[8:1]/8,,5,,6,,7<4[8:1],,8,,1,,2-7[8:1],,3,,
4,,5>2[8:1],,6,,7,,8-5[8:1],,1,,2,,,,
6h[8:1]/2h[8:1],,,,3,,4h[8:3],,7,,8h[8:1],,,,,,
1h[8:1]/5h[8:1],,,,8,,7h[8:3],,4,,3h[8:1],,,,,,
5-8[8:1]/1,,4,,3,,2>5[8:1],,1,,8,,7-2[8:1],,6,,
5,,4<7[8:1],,3,,2,,1-4[8:1],,8,,7,,,,
3h[8:1]/7h[8:1],,,,6,,5h[8:3],,2,,1h[8:1],,,,,,
8h[8:1]/4h[8:1],,,,1,,2h[8:3],,5,,6h[8:1],,,,,,
4h[8:1]/8-4[8:1],,,,2,,1,,8-4[8:1],,4,,5,,6qq3[8:5],,
,,2,,2,,1,,1,,8,,7,,,,
1>4[4:1]/5,,,,4V25[8:3],,5,,6,,7-3[8:1],,,,7V16v4[8:5],,
,,5h[4:1],,,,,,2h[4:1],,,,,,,,
5h[8:1]/1-5[8:1],,,,7,,8,,1-5[8:1],,5,,4,,3pp6[8:5],,
,,7,,7,,8,,8,,1,,2,,,,
8<5[4:1]/4,,,,5V74[8:3],,4,,3,,2-6[8:1],,,,2V83v5[8:5],,
,,4h[4:1],,,,,,7h[4:1],,,,,,,,
4h[8:1]/8<5[8:1],,,,2,,1,,8>3[8:1],,4,,5,,6h[8:1],,
,,75,,46,,35,,24,,18,,27,,,,
{32}3x/6x`D4/D6,4xh[32:247]`5xh[32:247]`D5,{16},,,,,,,,,,,,,,,
,,,,,,,,,,,,,,,,
,,,,,,,,,,,,,,,,
,,,,,,,,,,,,,,,,
,,,,,,,,,,,,,,,,
,,,,,,,,,,,,,,,,
,,,,,,,,,,,,,,,,
,,,,,,,,,,,,,,,,
E5,,,,E6/B6,,,,E4,,B4,,B5,,E3,,
,,E6,,,,B2/E2,,C,,,,E6/B5,,,,
E5,,,,E4/B3,,,,E2,,B1,,B8,,E7,,
,,E4,,,,B7/B6,,,,B1/E2,,,,,,
E5/D5,,,,E6,,,,E4/B3,,B4,,B5,,E3,,
,,E6/D6,,,,B2/E2,,C,,,,E5/B5,,,,
E7,,,,E4/B3,,,,E2,,B1,,B8,,D3,,
,,E4/D4,,,,Ch[4:1]/B6/B7,,,,,,7x<4[8:1]/8x-4[8:1],,,,
7b/8b,,,,2x>5[8:1]/1x-5[8:1],,,,1b/2b,,,,78,,7h[4:1],,
,,6,,5-1[8:1],,6,,5x/4x>1[8:1]*<7[8:1],,,,4b,,,,
8-4[8:1],,2-5[8:1],,8,,2,,7,,6,5,6,,48,,
7-3[8:1],,8-4[8:1],,7<4[8:1],,8,,7,,,,2x>5[8:1]/1x-5[8:1],,,,
2b/1b,,,,7x<4[8:1]/8x-4[8:1],,,,8b/7b,,,,21,,2h[4:1],,
,,3,,4-8[8:1],,3,,4x/5x<8[8:1]*>2[8:1],,,,5b,,,,
1-5[8:1],,7-4[8:1],,1,,7,,2,,3,4,3,,51,,
7<1[8:3]/8<1[8:3],,,,,,,,,,,,7xv5[8:1]/8xz4[8:1],,,,
7b/8b,,,,2xv4[8:1]/1xs5[8:1],,,,1b/2b,,,,78,,7h[4:1],,
,,6,,5-1[8:1],,6,,5x/2x>5[8:1]*<7[8:1],,,,2b,,,,
8-4[8:1],,2-5[8:1],,8,,2,,7,,6,5,6,,47,,
3-7[8:1],,4-8[8:1],,3>8[8:1],,4,,3,,,,2xv4[8:1]/1xs5[8:1],,,,
2b/1b,,,,7xv5[8:1]/8xz4[8:1],,,,8b/7b,,,,21,,2h[4:1],,
,,3,,4-8[8:1],,3,,4x/7x<4[8:1]*>2[8:1],,,,7b,,,,
1-5[8:1],,7-4[8:1],,1,,7,,2,,3,4,3,,52,,
7<1[2:1]/8<1[2:1],,,,,,,,,,,,,,,,
3xV16[2:1]/7xV52[2:1],,,,,,,,,,,,,,,,
6xV83[2:1]/2xV47[2:1],,,,,,,,,,,,,,,,
3xqq8[2:1]/7xqq4[2:1],,,,,,,,,,,,,,,,
6xpp1[2:1]/2xpp5[2:1],,,,,,,,,,,,,,,,
4x-1[12:1]/8x-5[12:1],,,,,,,,1x-4[12:1]/5x-8[12:1],,,,,,,,
4x>1[12:1]/8x<5[12:1],,,,,,,,4x<7[12:1]/8x>3[12:1],,,,,,,,
{12}6xh[12:1]/7xh[12:1],,5xh[12:1]/6xh[12:1],,4xh[12:1]/5xh[12:1],,
3xh[12:1]/4xh[12:1],,2xh[12:1]/3xh[12:1],,1xh[3:2]/2xh[12:1],,
{16}8x,,,,8x-4[8:1]*v5[8:1],,,,8x,C,,,8x,1,8,1,
6hb[8:1]/2hb[4:1],,,,7,,8h[8:3],,3,,4h[4:1],,,,Ch[32:1],,
{32}E4,E5,A5,,,,,,B2,C,B6,,,,,,A1,E1,E8,,{16},,,,8xh[4:3],,
{32}E4,E5,A5,,,,,,B2,C,B6,,,,,,A1,E1,E8,,{16},,,,1x/3x,,
{32}8xh[8:5]/E4,E5,A5,,,,,,B2,C,B6,,,,,,A1,E1,E8,,{16},,,,56,,
3h[8:1]/7h[4:1],,,,2,,1h[8:3],,6,,5h[4:1],,,,Ch[32:1],,
{32}E6,E5,A422,,,,,,B7,C,B3,,,,,,A8,E1,E2,,{16},,,,1xh[4:3],,
{32}E6,E5,A4,,,,,,B7,C,B3,,,,,,A8,E1,E2,,{16},,,,8x/6x,,
{16}Ch[8:1],,,,2xh[32:1],3xh[32:1],6xh[32:1],5xh[32:1],
3xh[32:1],4xh[32:1],5xh[32:1],4xh[32:1],,,34,,
6h[8:1]/2h[4:1],,,,7,,8h[8:3],,3,,4h[4:1],,,,8xh[4:3],,
{32}3xb,4x,5x,,,,,,3xb,4x,5x,,,,,,3xb,4x,5x,,{16},,,,Ch[32:1],,
{32}7xh[8:1]/2xb,3x,4x,,,,,,8xh[8:1]/3xb,4x,5x,,,,,,1xh[8:1]/4xb,5x,6x,,
{16},,,,2x/7x,,
{32}7xh[8:1]/2xb,3xb,4xb,,,,,,8xh[8:1]/3xb,4xb,5xb,,,,,,1xh[8:1]/4xb,5xb,6xb,,
{16},,,,56,,
3h[8:1]/7h[4:1],,,,2,,1h[8:3],,6,,5h[4:1],,,,1xh[4:3],,
{32}6xb,5x,4x,,,,,,6xb,5x,4x,,,,,,6xb,5x,4x,,{16},,,,Ch[32:1],,
{32}2xh[8:1]/7xb,6x,5x,,,,,,1xh[8:1]/6xb,5x,4x,,,,,,8xh[8:1]/5xb,4x,3x,,
{16},,,,7x/2x,,
{32}2xh[8:1]/7xb,6xb,5xb,,,,,,1xh[8:1]/6xb,5xb,4xb,,,,,,8xh[8:1]/5xb,4xb,3xb,,
{16},,,,Ch[32:1],,
6x<1[8:1],,5,,4,,3<6[8:1],,2,,1,,8>3[8:1],,7,,
6x-2[16:1],,,,,,3x<6[16:1],,,,,,1x-5[16:1],,,,
3x>8[8:1],,4,,5,,6>3[8:1],,7,,8,,1<6[8:1],,2,,
3x-7[16:1],,,,,,6x>3[16:1],,,,,,8x-4[16:1],,,,
7x>2[8:1],,6,,5,,4<7[8:1],,3,,2,,1>4[8:1],,8,,
7x-3[16:1],,,,,,4x<7[16:1],,,,,,8x-4[16:1],,,,
2x<7[8:1],,3,,4,,5>2[8:1],,6,,7,,8<5[8:1],,1,,
2x-6[16:1],,,,,,5x>2[16:1],,,,,,8x-3[16:1],,,,
5x<6-8[8:1],,4,,3,,2>3-5[8:1],,1,,8,,7>8-2[8:1],,6,,
5x-8[16:1],,,,,,2x-4<5[16:1],,,,,,1xv6[16:1],,,,
4x>3-1[8:1],,5,,6,,7<6-4[8:1],,8,,1,,2<1-7[8:1],,3,,
4x-1[16:1],,,,,,7x-5>4[16:1],,,,,,8x-4[16:1],,,,
6x-8>1[8:1],,5,,4,,3-5<6[8:1],,2,,1,,8-2>3[8:1],,7,,
6x-2[16:1],,,,,,3x-5<6[16:1],,,,,,1x-5[16:1],,,,
3x-1<8[8:1],,4,,5,,6-4>3[8:1],,7,,8,,1,,2,,
3bv6b[16:1]`7v2[16:1],,,,,,1b-5b[16:1],,,,,,Cfh[32:1],,,,
3xh[4:1],,,,4h[4:1],,,,5,,5v3[16:3],,,,4h[4:1],,
,,,,,,2v4[16:3]/5pp7[16:3],,25,,,,,,,,
6xh[4:1],,,,5h[4:1],,,,4,,4v6[16:3],,,,5h[4:1],,
,,,,,,7pp2[2:1]/4v5[16:3],,74,,,,Cf,,,,
3xh[4:1],,,,4h[4:1],,,,5,,5qq3[16:3],,,,4h[4:1],,
,,,,,,2v5[16:3]/5pp6[16:3],,25,,,,,,,,
6xh[4:1],,,,4h[4:1],,,,5,,5,,3,,4,,
35,,6,,45,,3,,46,,3,,45,,6,,
7,,5,,6,,6,,4/7-4[8:1],,5,6,5,,3,,
2,,4v6[8:1],3,4,,2,,2,,4,,6qq4[8:1],,5,,
6,,3,,3,,5,,5/2v5[8:1],,4,3,4,,6,,
7,,5qq3[8:1],6,5,,7,,8-4b[8:1],,2h[16:3],,A8f,,,,
2,,1,,8,,7,,4/7-4[8:1],,5,6,5,,3,,
2,,4pp5[8:1],3,4,,2,,2,,4,,6v5[8:1],,5,,
3,,3,,4,,6h[16:5],,5,,7,8,1xw5[50#24:1],,Ch[16:13]/1?w5b[57.1#21:1],,
1?w5[66.6#18:1],,1?w5b[80#15:1],,1?w5[100#12:1],,
1?w5b[133.3#9:1],,1?w5[200#6:1],,1?w5b[400#3:1],,1b,,,,
,,,,E5/D5,,E4/D4/E6/D6,,,,2,,1,,8xV25[4:1]/7,,
,,5xp7[4:1],,,,7x>4[4:1],,6,,{24}4x,5,6,{16}7,,,,
8p2[4:1],,,,2q8[4:1],,,,1h[4:1],,,,{24},2,3,4q8[8:1]*p8[8:1],,,
{16},,4,,,,7,,6h[4:1],,{24}8b,1,2,{16}3,4,,,
6>3[8:1],,,,2q6[8:1],,,,6,,7,,8,,1xV74b[4:1]/2,,
,,4xq2b[4:1],,,,2x<5b[4:1],,3,,{24}5x,4,3,{16}2,,,,
7>2[8:1],,,,3p6[16:3],,,,5,,,,4x/5xv4[8:1],,36,,
,,2,2,3,3,4,4,5,5,6,6,7,7,8,,
14,,3,,58,,6,,45,,2,1,2,1,3,8,
3,8,4,7,4,7,5,6,5,6,4,6,3,5,2,4,
1>4[4:1],,,,4qq5[8:3],,,,,,6,,7,,8p4[8:1],,
,,28,,,,3h[2:1],,2,,1,,8,,7,,
6<8[8:1],,5p1[8:1],,6,,5,,4q8[8:1],,3,,4,,1>4[8:1],,
,,18,,7,,6h[4:1],,3,,4h[8:1],,5,,,,
3-5[8:1],,2,,6-4[8:1],,7,,2-5[8:1],,1,,7-4[8:1],,8,,
1q5b[8:1],,8,,5,6,7,8,6,7,8,1,7,8,1,2,
3xp5[2:1]`8xz4b[2:1],,,,,,,,,,,,,,,,
56,,7,,45,,3,,2-5[8:1]/5-1[8:1],,,,25,,,,
8-4[8:1],,5-2[8:1],,8,,5,,6x,,7,6,5,,35,,
2x<7[8:1],,6x>3[8:1],,2xq3[8:3],,,,,,,,B6,,B5,,
2x>5[12:1]/6x<1[12:1],,,,26,,,,1p5[8:1]/5,,,,1/5x,,3h[4:1],,
,,4,,2-6b[12:1],,8,,2<7[8:1]/6>3[8:1],,,,2x/6x,,,,
1x-5[8:1],,4<7[8:1],,1,,4,,3x,,2,3,4,,4x/6x,,
E7/7xh[8:5],,E8,,E1,,E2,,E3,,E4,,E5/E6,,,,
1-5[8:1]/6-8[8:1],,,,16,,,,1-5[12:1]*v4[12:1],,,,1,,3xh[2:1],,
,,2,,1,,8,,7-4[8:1]/4-8[8:1],,,,74,,,,
1-5[8:1],,4-7[8:1],,1,,4,,3x,,2,3,4,,64,,
7x>2[8:1],,3x<6[8:1],,7xp6[8:3],,,,,,,,B3,,B4,,
7x<4[12:1]/3x>8[12:1],,,,73,,,,8q4[8:1]/4,,,,8/4x,,6h[4:1],,
,,5,,7-3b[12:1],,1,,7>2[8:1]/3<6[8:1],,,,7x/3x,,,,
8x-4[8:1],,5>2[8:1],,8,,5,,6x,,7,6,5,,5x/3x,,
2b<7-3b[2:1]/6b>3-7b[2:1],,,,,,,,,,,,,,,,
7b>2-6b[2:1]/3b<6-2b[2:1],,,,,,,,,,,,,,,,
6bz2b[2:1]/3bs7b[2:1],,,,,,,,,,,,,,,,
1b-3v4b[2:1]/5b-7v8b[2:1],,,,,,,,,,,,,,,,
4b-6v7b[2:1]/8b-2v3b[2:1],,,,,,,,,,,,,,,,
4xq1b[12:1]/8x<5b[12:1],,,,,,,,5xp8b[12:1]/1x>4b[12:1],,,,,,,,
3x>8b[12:1]/7x<4b[12:1],,,,,,,,8x>3b[12:1]/4x<7b[12:1],,,,,,,,
{12}3xh[12:1]/2xh[12:1],,4xh[12:1]/3xh[12:1],,5xh[12:1]/4xh[12:1],,
6xh[12:1]/5xh[12:1],,7xh[12:1]/6xh[12:1],,8xh[3:2]/7xh[12:1],,
{16}1x,,,,1x-5b[8:1]*v4b[8:1],,,,1x,C,,,,,56,,
3h[8:1]/7h[4:1],,,,2,,1h[8:3],,6,,5h[8:1],,,,B1/B5,,
Ch[32:1],,,,3,4,2,4,3,4,2,4,3,4,2,4,
Ch[32:1],,,,6,5,7,5,6,5,7,5,6,5,7,5,
Ch[32:1],,,,1,8,2,7,1,8,2,7,1,8,2,7,
Ch[16:1]f,,,,7b/8b,,2b/4b,,5b/6b,,1b/8b,1b/8b,2b/7b,,3b/5b,,
6b/8b,,,,1b,,,,1b,,2b/8b,2b/8b,3b/7b,,4b/5b,,
7b/8b,,,,4,5,3,6,4,5,3,6,4b,,1b/2b,1b/2b,
3b/8b,,,,E7/B6f,E5f,B4/E4f,E6f,E3/B3f,D5f,D6/A6f,A3f,Chf[32:1],,7b/8b,7b/8b,
{32}1b/6b,,,,,,,,1xb,2xb,3xb,,,,,,2xb,3xb,4xb,,,,,,3xb,4xb,5xb,,,,,,
,,,,,,,,1xb/B5,2xb/B6,3xb/B7,,,,,,
2xb/E6,3xb/E7,4xb/E8,,,,,,3xb/A7,4xb/A8,5xb/A1,,,,,,
,,,,,,,,1xb/5xb,2xb/6xb,3xb/7xb,,,,,,
2xb/6xb,3xb/7xb,4xb/8xb,,,,,,3xb/7xb,4xb/8xb,5xb/1xb,,,,,,
{16},,Chf[16:1],,1b/2b,,7b/5b,,3b/4b,,1b/7b,,5b/6b,,1b/8b,2b/7b,
{32}2b/7b,,,,,,,,B1/6h[8:1],B2,B3,,,,,,
E2/6h[8:1],E3,E4,,,,,,A2/6h[8:1],A3,A4,,,,,,
6h[8:1],,,,,,,,1/6h[8:1],2,3,,,,,,
2/6h[8:1],3,4,,,,,,3/6h[8:1],4,5,,,,,,
6h[8:1],,,,,,,,1xb/6h[8:1],2xb,3xb,,,,,,
2xb/6h[8:1],3xb,4xb,,,,,,3xb/6h[8:1],4xb,5xb,,,,,,
6hb[8:1],,,,,,,,1xb/6hb[8:1],2xb,3xb,,,,,,
2xb/6hb[8:1],3xb,4xb,,,,,,{16}6b,4b,6b,5b,
6,,6,,6,,6,,6,,6,,6,,6,5,
6,,6,,6,,6,,6,,6,5,6,,6,,
6,,6,,6,,6,,6,,6,,6,,6,5,
6,,6,,6,,6,,6,,6,5,6,5,,5,
6,,6,,6/5xh[16:1],,6,,6,,6,,6/5xh[16:1],,6,5,
6,,6,,6/5xh[16:1],,6,,6,,6,5,6/5xh[16:1],,6,,
6,,6,,6/5xh[16:1],,6,,6,,6,,6/5xh[16:1],,6,5,
6,,6,,6/5xh[16:1],,6,,6,,6,5,6,5,6,,
6,,6,,6/5xh[16:1],,6,,6,,6,,6/5xh[16:1],,6,5,
6,,6,,6/5xh[16:1],,6,,6,,6,5,6/5xh[16:1],,6,,
6,,6,,6/5xh[16:1],,6,,6,,6,,6/5xh[16:1],,6,5,
6,,6,,6/5xh[16:1],,6,,6,,6,5,6,5,,5,
6,,6,,6/5xh[16:1],,6,,6,,6,,6/5xh[16:1],,6,5,
6,,6,,6/5xh[16:1],,6,,6,,6,5,6/5xh[16:1],,6,,
6,,,,5xh[16:1],,,,,,,,5xh[16:1],,,,
,,,,5xh[16:1],,,,,,,,5xh[16:1],,,,
,,,,5xh[16:1],,,,,,,,5xh[16:1],,,,
,,,,5xh[16:1],,,,,,,,5xh[16:1],,,,
,,,,5xh[16:1],,,,,,,,5xh[16:1],,,,
,,,,5xh[16:1],,,,,,,,5xh[16:1],,,,
,,,,5xh[16:1],,,,,,,,5xh[16:1],,,,
,,,,5xh[16:1],,B4,,B3,,B2,,5xh[16:1],,E4,,
E3,,E2,,5xh[16:1],,D3/E3,,D2/E2,,D1/E1,,D8/E8,,D7/E7,,
{16}Cf,,,,,,,,,,,,4x,,6x,,
5x,,,,E5/D5,,E6/D6,,,,E5/D5,,E6/D6,,,,
4x,,,,E5/D5,,E4/D4,,,,,,4,,6,,
5x,,,,E5/D5,,E6/D6,,,,E5/D5,,E6/D6,,,,
4x,,,,E5/D5,,E4/D4,,,,E5/D5,,E4/D4,,,,
