&title=Ultimate Force
&artist=Sakuzyo
&first=-0.8699995
&lv_5=15
&des_5=SDtape
&inote_5=
(270){4},,,,{1}B7/E8/B8/Ch[1:1],
{8}E5,B5,B6,E7,E1,B1,B2,E3,
E7,B7,B8,E1,E3,B3,B4,E5,
E1,E2,E3,E4,E5,E6,E7,E8,
D1,D2,D3,D4,{2}1xh[4:1]/D5,
{32}7b/8b,6/1,5/2,4/3,,,,,,,,,,,,,{8}3,4,3,5,
3,5,2<4[4:1],4,{2}2,
{32}2b/1b,3/8,4/7,5/6,,,,,,,,,,,,,{8}7,8,6,1,
7,1,6V84[4:1],8,{2}6,
{32}6b/5b,7/4,8/3,1/2,,,,,,,,,,,,,{8}2,8,2,7,
1,6,2,8,3xh[8:1],6b,,5b,
{32}4b/3b,5/2,6/1,7/8,,,,,,,,,,,,,{8}6,3,5,4,
{32}5b,6,7,8,{8}2,3,4,{32}5b,4,3,2,{8}8,{32}8b,7,6,5,,,,,{1}B1/E2/B2f/E3/B3,
,B7/E1/B2/B4,
,B5/B4/E5,
E7/E3,
C,
,1bxpp6pp1b[4:13]/5x>6qq2[4:13],
,,,1xh[1:3]/2<2pp5[4:11],
{4},,,,,,,,,8/B2/B3,
4/B7/E7,5/B1/B2,
1b/7b-4[8:1],7/4,{16}5/3-7[8:1],2,1,8,{4}7/3,
{8}1-5[8:1],1,6-2[8:1],6,4-8[8:1],4,7-3[8:1],7,
{4}7b/1bv4[8:1],1/5,{16}3/5>2[8:1],6,7,8,{4}1/5,
{8}7-3[8:1],7,1-5[8:1],1,{16}4,5,6,7,4,3,2,1,
{4}8b/7b-3[8:1],7/5-1[8:1],{16}5/2-5[8:1],1,8,7,{4}6,
{8}7-4[8:1],7,1-5[8:1],1,8-4[8:1],8,2-6[8:1],2,
{16}2b/5b,6,{8}7,{16}4b/8bv5[8:1],7,{8}6,{16}2b/8b-6[8:1],3,{8}4,{16}8b/3b,2,{8}1,
{16}5,4,3,2,1/5b,8,7,6,5/4,3,2,1,{4}8/4b-7[8:1],
4b/2b-6[8:1],2/8,{16}1-5[8:1],8,7,6,{4}5/1,
{8}6-2[8:1],6,3-8[8:1],3,7-4[8:1],7,2-6[0.2222##0.1111],2,
2b/5b-8[0.2222##0.1111],,{4}5/3-7[8:1],{16}3/7>2[8:1],6,5,4,{4}3,
{8}6-1[8:1],6,4-8[8:1],4,7-4[8:1],7,{24}7/3<6[8:1],2,{6}1,
{4}1b-5[8:1],{16}1/8-4[8:1],7,{8}6,{16}8/4-7[8:1],3,2,1,,,,,{8}2-6[8:1],
2,8-5[8:1],8,3-7[8:1],3,3b/4b<7[8:1],4,
{24}4b/8b-4[8:1],1,{12}2,{24},,8b/3b-7[8:1],2,{6}1,{24}3b/6b-1[8:1],7,{12}8,{24},,6b/2b,3,4,5,{48},,,,{16}8b,
7,6,5,4/1b,2,3,4,8b/5,7,6,5,1b/4,2,3,4,
{4}5/8b<6[8:1],1/8-5[8:1],2/8-4[8:1],{8}3/8,2,
{4}6/1>3[8:1],8/1-4[8:1],7/1-5[8:1],{8}6-8[8:1]/1>4[8:1],6,
{4}6/1,{16}5x/1x,4x/8x,3x/7x,6x/2x,{4}5x-1-5[4:1]/1-4b[8:1],5/1,
{8}3-8[8:1],6,3,7-4[8:1],1V35[4:1],7,1,6,
{4}7>1[8:1],4/7-4[8:1],2/7-2b[8:1],{8}3/7,3,
{4}3>1[8:1],6/3-6[8:1],8/3-8b[8:1],{8}7/3,7,
7/1,2,3,4,{16}6,7,8/5,4,3/1,8,7,6,
5/1,4,3,2,1/5,8,7,6,5/1,4,3,2,1/5,4/8,3/7,2/6,
{4}5b-7[8:1]/1b-3[8:1],5-2[8:1]/1-6[8:1],5-1b[8:1]/1-5b[8:1],5/1,
8-6[8:1]/4-2[8:1],8-3[8:1]/4-7[8:1],8-4b[8:1]/4-8b[8:1],8/4,
{8}5/1,1/5,2,2,3/7,7/3,6,6,
1-5[8:1],7,1,6-1[8:1],4,6,{16}5,4,3,2,
{4}8-6[8:1]/1bv6b[8:1],8bv3[8:1]/1b-3b[8:1],8b/1b,{16}4,5,4,5,
{4}4b/5bx<8[8:1],{8}3b,3b,2b,2b,{32}1b,2,3,4,5,6,7,8,
{4}1b,{16}2,4,2,4,{4}2,{16}7>5b[8:3],5,7,5,
{2}7,{16}3,6,3,6,2pp1pp6[4:5],7,2,7,
{1}2bx,
{4},,8,7,
{2}B2/E3f/B3/6x<1[4:1],4,
{4}B4f/B5/E5/2x<7[4:1],3,4,5,
B7f/B6/E7/6<1[4:1],5,4-8[4:1],7,
B5f,E1f,{2}B7/E7,
E7f/B7/B6/3xV51[2:1],{4}8,7,
E3f/B2/B3/6xV84[2:1],1,2,3,
E6f/B6/B5/3>5[2:1],6,7,8,
E5f/1x<4[2:1],E4,E3,E2,
E1f/5x-1[2:1],2,2,2,
B7f/3x-7[2:1],5,5,5,
B4f/6xq2[2:1],5,5,5,
E1f/4p8[2:1],E8f,E7,E6,
B1f/4x<1[2:1],2,3,4,
B8f/5x>8[2:1],7,6,5,
8x/4x,1/5,2/6,3/7,
{1}4bqq8[2:1]/8bqq4[2:1],
{2}1b-5[2:7],{12}7h,4h,8,5,7h,3h,
{2}6h[4:1],{6}1,{12}7h,6h,,,,,3h,
2,1,6h,7,8,4h,3,2,1,
8,7,6,8h,7,6,5,1h,,,,,{4}8b-4[2:7],
6h[6:1],{12},,{6}5h,6h,
{12}3h,2,1,8h,7,6,3h,2,1,8h,7,6,
{3}3h[4:1],{12}5h,2,7h,1,8h,3,7,2h,
6,1h,,7,6,5,4,8,{24},,,,,,,,2b-6b[2:7],
3,{12}4,,,,,{6}8,7,6,
5,4,3,{12}8h,7,{24},,{8}5h,6,
{6}3,2h,{12}7,1h,,8,,7h,6,5,
1h,2,3,1h,8,7,6,2h,{24},,,,,,,,7b-3b[2:7],
8/6,{12}5/1,,{4}2h[12:1],{6}4h,{12}3,6,8h,1,
,5,6,7,8,1,2,6,7,8,1,2,
{6}3,{12}6h,4,7,2h,5,3,8h,4,6,1h,
7,6,5,7,8,1,{2}7,
{1}Ch[2:15],
{2},B2,
{4}B6/B8,B5,{2}B3/B4,
,B8,
E4/B3,B7,
B1/B5,{6}B2,B7,B3,
{1}B6,
{4},,,,2h[4:1],
4h[4:1],3h[4:1],{8}5,4,
6,5,7,4,1,2,8,3,
{4}7h[4:1],5h[4:1],6h[4:1],{8}4,5,
3,4,2,5,8,7,1,6,
{4}2q5[4:3],5,6,{8}8,7,
{4}6q1[4:3],4,3,{8}2,3,
{1}4w8b[2:3],
{4},,,,6b/2-5[4:1],
6,7,8-4b[4:1],
{8}3,3,,2,5,3,{4}6<1[4:1],
6b/2b,4,5v2[4:1],8,
{8}7,6,3,4,6,6,5,5,
{4}4b/7b-2[4:1],4,3,3>8b[4:1],
{8}5,5,,7,8,6,{4}1,
{8}3-8[4:1],4,3,6,7-4[4:1],1,7,3,
2-7b[4:1],5,2,6,6-3b[4:1],8,6,1,
{4}2bh[4:3],4,4,{8}5,3,
{4}6bh[4:3],4,4,{8}4,5,
{4}2bh[4:3],6,6,{8}6,4,
{4}7bh[4:3],3,3,3,
{8}8b,8,1,1,7,7,2,2,
6b,6,3,3,5,5,4,4,
6/4,6,5/3,3,7/4,7,5/2,2,
1b/8b,8b/1b,8b/1b,8b/1b,{16}1,8,1,8,{32}1b,2,3,4,5bs1b[8:13],6,7,8,
{1}1bh[4:7],
{4},,,,7b/2b-5[8:1],
2/8-4[8:1],{24}8/1-6b[8:1]*-5b[8:1],2,{12}3,,{4}1,
{8}7-4[8:1],7,3-8[8:1],3,6-3[8:1],6,2-7b[8:1],2,
{4}2b/4b-8[8:1],4/1-5[8:1],{24}1/7-4b[8:1]*-2b[8:1],6,{12}5,,{4}7,
{8}3-8[8:1],5-1[8:1],3,5,2-6[8:1],7-4b[8:1],2,7,
{4}3b>8[8:1],3/5-1[8:1],{24}5/2-6b[8:1],3,{12}4,{24},,2/5-2b[8:1],6,7,8,,,{8}5b,
7,{16}8,1,8,1,8,7,6,5,{24}4/8b,1,2,3b,4,5,
{4}6b/8bv6[8:1]*-5b[8:1],8bv2[8:1]*-3b[8:1],8b,{16}4,4,4,4,
4,3,2,1,8/4,5,6,7,{24}8/4b,3,2,1,8,7,6,5,4,3,2,1,
{4}8b/4b-7[8:1],4/8>3[8:1],8/6-2b[8:1]*-1b[8:1],6,
{8}8-4[8:1],8,3-8[8:1],3,7-4[8:1],7,{16}4,3,2,1,
{4}8b>3b[8:1],8/5-1[8:1],5/4<7[8:1]*>1b[8:1],4,
{8}8-3[8:1],8,2-5[8:1],2,{16}6,7,8,1,4,3,2,1,
{24}8b/7b,6,5,4,,,1b/2b,3,4,5,6,7,{4}4b/8b,{16}5b,7b,5b,7b,
{4}5bh[4:1],{8}8b,8b,7b/3b,7b/3b,6b/4b,6b/4b,
{16}4b,6,4,6,3,7,3,7,2,8,2,8,1,1,1,1,
{32}1b,2,3,4,5,6,7,8,1,2,3,4,5,6,7,8,1,2,3,4,5,6,7,8,1,2,3,4,5,6,7,8,
{4}1b/5b,{8}7-4[8:1],7,1-5[8:1],1,6-1[8:1],6,
3-7[8:1],3,8-4[8:1],8,2v5[8:1],2,6v1[8:1],6,
3-8[8:1],3,7-4[8:1],7,1-5[8:1],1,6-2[8:1],6,
4-8b[8:1],4,4b/7-4b[8:1],7,{16}4/7b,3,2,1,{4}8b,
{8}7-4[8:1],7,5-2[8:1],5,1-6[8:1],1,3-8[8:1],3,
7-3[8:1],7,1-5[8:1],1,6-1[8:1],6,4-8[8:1],4,
7-2[8:1],7,3-6[8:1],3,8-5[8:1],8,4-1[8:1],4,
6-2b[8:1],6,6b/3-8b[8:1],3,{16}3b/8,7,6,5,{4}4b,
{16}1b,2,3,4,8b,7,6,5,2b,3,4,5,7b,6,5,4,
3/1b,8,7,6,2b,1,8,7,3b,2,1,8,4b,3,2,1,
8/4b,3,2,1,7b,6,5,4,2b,3,4,5,1b,8,7,6,
3h[32:1],5h[32:1],3h[32:1],5h[32:1],{32}3b,2,1,8,7,6,5,4,{4}3b,4b/6b,
{16}4,6,4,6,3,7,3,7,2h[32:1],8h[32:1],2h[32:1],8h[32:1],{4}2b,
{16}5,3,5,3,6,2,6,2,7h[32:1],1h[32:1],7h[32:1],1h[32:1],{4}7b,
{8}6b/4b,8b/2b,,5b/1b,,2b/6b,{4}4b/8b,
{16}3b/7b,2,1,8,7,6,5,4,{24}3/8,7,6,5,4,3,{32}1b,8,7,6,5,4,3,2,
{8}1b,B7,B3,B5,B1,B6/E7,E1/B8,B2/E3,
{4}B5/E5,{32}5b<5[1:2]*>5b[1:2],4/6,7/3,8/2,{8}1,{1},,{4},,{1}1b,
E
