&title=SnowMix♪ (Project Sekai edit ver.)
&artist=まらしぃ feat. 初音未来
&first=0
&des=71nG
&lv_6=13+
&inote_6=(185){64},,,,{8}5h[4:1]/3h[8:3],,,,,,3h[8:3]/4h[4:1],,,,,3,5,4,3h[4:1],,7p4[2:1],,1x,,1x,,2x,2xq5[2:1],,6x,,8x,8x,,7x,,5h[4:1]/6h[8:3],,,,,64,6h[8:3]/4h[4:1],,,,,6,1,,2/4h[4:1],,8q3[2:1],,7x,,7x,,8x,1x-6[4:1],,2x,,2x,{12}E4,E3,E2,E6,E7,E8,{8}4x-8[4:1],,3,3h[8:3],,,1-5[4:1],,7,7,,6,5,4,3pp8[4:3],,,,7x,,7x,,6x,6xpp4[4:3],,2xh[4:1],,,3x,,3x,,2-6[4:1],,7,7,,,2-6[4:3]*-6[4:3],,3,3h[8:7],,,,,,,6xh[8:7],,,,,,5,5h[1:1],,,,,,,4,4h[1:1],,,,,,,3,3h[1:1],,4,4,4,4,4,4,4,4xh[8:1],3h[8:1],4h[8:1],3h[8:1],5h[8:1],3h[8:1],5h[8:1],3h[8:1],6h[8:1],E4,7h[8:1],E3,8h[8:1],1x-5[8:1],,1x/7x,,6h[8:1],5h[8:1],6h[8:1],5h[8:1],6h[8:1],4h[8:1],6h[8:1],3h[8:1],E6,2h[8:1],E7,1h[8:1],8x-4[8:1],,8x/2x,,3h[8:1],4h[8:1],3h[8:1],5h[8:1],3h[8:1],4h[8:1],3h[8:1],5h[8:1],E3,6h[8:1],E4,7h[8:1],5x-2[8:1],,7xpp4[4:3],,2,2h[2:1],,,,,Ch[8:5],,,,,{32}E8,E7,E6,E5,E4,E3,E2,E1,{8}E8f,,3b/4b,3,1x/3,3,65,6,6/8x,6,78,1<6[8:1],,12,,3>8[8:1],,4/3,,5,5/7x,5,35,5,5/7x,5,53,2>5[8:1],,12,,8<5[8:1],,18,,2,2/4x,2,28,2,2/4x,2,28,8-4[8:1],,3>1[8:1]/8<5[8:1],,3V51[4:1],,3,,7p4[8:3],7h[2:1],,,,,,1h[2:1],,,,5h[2:1],,,,Ch[4:7],,8x,,7x,,6x,6x,,5x,,6x,6x,,7x,,,8-4[8:1],1,8,1<6[8:1],2v5[8:1],1,2,7-4[8:1],4V61[4:1],7,2pp6[8:3],,,,,7xh[1:2],,E1,,E2,,E5,E1,,E2,,E5,E8,,E7,,,5-1[8:1],6,5,8>8[2:1],2,4<8[4:1],6<8[8:1],,3,3,4w8[4:1],,,,,C,,2-6[4:1],,6-2[4:1],,7,7,,8-4[4:1],,4-8[4:1],3,,3,,,1<6[8:1],2,3,4>2[8:1],5<8[8:1],4,5pp4[8:5],,3qq4[8:3],4,3,,,,,7V51[4:1]/Cf,,3,3,,,2V48[4:1]/Cf,,7,7,,5,5-2[8:1]*-8[8:1],,5,,3b/6b,1b-5[8:1]/8b-4[8:1],2b/7b,1b/8b`Cf,,,3b/6b,4bz8[8:1]/5bs1[8:1],3b/6b,4b/5b/E5`Cf`E1,,,1,8h[4:3],,,2h[8:3],,,{16},,8,7,6,5,4,3,2,1,48,5,6,7,8,1,2,3,4b/8b,,2b/6b,,,,{8}8,1<6[8:1],,15,5>2[8:1],,5<7[8:1]*qq1[8:3],,5b,,,,,8-5[8:1]/7-4[8:1],,8>3[8:1]/7,,8,5<8[8:1],4,5,2>5[8:1],1,2,7>2[8:1],6,7,4<7[8:1],3,4>1[8:1]*p8[8:1],,4,,7x/8x,7x/8x,1x/6x,1x/6xh[8:3],,,1b,1b>4[8:1]*-4[8:1],,1b<6[8:1]*-6[8:1],,1bw5[8:1],,1b`B1`Cf`B5/B4/B6,,,7-3[8:1],,7,1,{16}2,4,2,4,2,5,2,6,1,6,1,6,8-4[8:1],7,8,7,8bx,,6bx,,,,{8}72,1V37[4:1],,1,6>4[8:1],,1w5[8:1],,1bpp6[16:9]*qq4[16:9]`Cf,,,,,,,,,1-3[8:1]/5,,1,8-4[8:1],,8,7-5[8:1],,7,4-2[8:1],,,6-4[8:1],,6qq1[2:1],,7h[8:3],,,,,,71,26,3-5[8:1]/5,,7,,8b/B2/B3,1b/B6/B7,,,{16}4,3,2,1,5,6,7,8,2,3,4,5,1,8,7,6,3,4,3,4,3,,6,5,6,5,6,,4,5,4,,5,4,5,4,5,,4,5,4,5,4,,5,4,5,,2,1,2,1,2,,7,8,7,8,7,,8,1,2,3,4b-8[8:1],,,,,,7,7,7-3[8:1],,,,,,1,1,1-5[8:1],,,,,,6,,6,,,,28,,3b/7b,,,,7,5,7,,2,4,2,,6,5,6,,3,3,8,7,6,5,2,3,4,5,{16}7,6,5,4,{32}1x,2x,3x,4x,5x,6x,7x,8x,1x/6x,5xh[16:3],,,,,2x,3xh[16:3],,,,,6x,7xh[16:3],,,,,3x,4xh[16:3],,,,,8x,1xh[16:3],,,,,3x,2xh[16:3],,,,,8x,7xh[16:3],,,,,3x,4xh[16:3],,,,,6x,5xh[16:3],,,,,3x,2xh[16:3],,,,,6x,7xh[16:3],,,,,4x,5xh[16:3],,,,,8x,1xh[16:3],,,,,3x,2xh[16:3],,,,,7x,6xh[16:3],,,,,1x,8xh[16:3],,,,,5x,4xh[16:3],,,,,1x,2xh[16:3],,,,,6x,7xh[16:3],,,,,3x,4xh[16:3],,,,,6b,,,,8b,,,,{8}1bqq5[1:1]/3bqq5[1:1],,,,,,,,,,,,3b/7b,3b/7b,,{12}2,4,3,7,5,6,3,1,2,6,8,7,2,{32}8x,7x,6x,5x,4x,3x,2x,1x,8x,7x,6x,5x,4x,3x,2x,1x,8x,7x,6bx/2bx,,,,6bx/2bx,,,{8},,E1/B8/Cf/B4/E5,,,Cf,{16}5x,6x,4x,3x,6x,7x,4x,3x,7x,8x,3x,2x,7x,8x,3x,2x,8bx/1bx,,{8}8b-4[8:1],,81,2-6[8:1],,82,7>1[8:1],,7/4w8[8:1],,4b`B4`Cf`B1/B8/B7,,,,,1-3[8:1]*-4[8:1],,1-6[8:1],,1,3-8[8:1],4,7,6-3[8:1],5,8,1-6[8:1],2,3,4-1[8:1],5,7-3[8:1]*-4[8:1]/4,,7,,2b/5b,2b/5b,3b/4b,3b/4h[8:3],,,1,1-5[8:1],,8-4[8:1],,7-3[8:1],,7b`B7`Cf`B3,,,E2f/B1/E1,,,{16}E6f/B6/B5,,1,2,3,4,6,7,8,1,5,4,3,2,8,7,6,5,1b,,1b-5[8:1],,,,{8}18,7<4[8:1],,72,3>8[8:1],,5-1[8:1]*pp4[8:7],,5b<4[8:5]`Cf,,,,,,,,,2V48[4:1],,2,7V15[4:1],,7,4V62[4:1],,4,1V73[4:1],,1,2,,1qq5[8:5]*pp5[8:5],,1,,,,,,46,37,2-6[8:1]/8,,1,,8b-4[8:1]/4,4b/8,,,1-3[8:1],7,1-5[8:1],6,1-3[8:1],7,1-5[8:1],6,1,7,1,6,35,35,2q6[8:1]/6,,7,,8,57,8,56,8,1,34,1,24,1,1-5[8:1],,81,{16}8x,7x,{8}6x-4[8:1],2,6x-8[8:1],3,6x-4[8:1],2,6x-8[8:1],3,6x-4[8:1],2,6x,3,6x-2[8:1]/2x-5[8:1],,2V48[4:1]/6,,,,7,6,15,2,3,45,6,45,3,56,2-6[8:1]*-5[8:1],35,2,,7-4[8:1],8,2-5[8:1],1,6-1[8:1],7,3-8[8:1],2,3,6,5,1,2/4-1[8:1],35,4-7[8:1]/6,,,,38,2,37,6,35,24,5,36,4,57,8-4[8:1],37,{16}8<5[8:1]/1x,2x,3x,,{8}8-3[8:1],,8,4<7[8:1],,4,1>4[8:1],,1,8h[2:1],,6,4,1w5[8:1],,{1}1b>8[1:4]`B1`Cf`B4/B6/B5,,,{4},B5,B4,B3,E2,E
