&title=響け! CHIREI MY WAY!
&artist=イノライ × 森羅万象
&first=0
&des=響け! Holinality!
&clock_count=4
&lv_5=13
&inote_5=(181)
{1},
{96}
,,,
{8}
,,,,Ch[8:2],,,,
{16}
E7,,,,E3,,,,
7,,,6,,,5/3,,
4,,,,4>1[16:4]/6h[8:2],,,,
4,,,,,,,,
5<8[4:1],,,,5,,,,
1,,,2,,,3h[8:1],,
6>3[4:1],,,,3>8[4:1],,,,
8<5[4:1],,,,3x,,3hx[8:5],,
,,,,,,,,
6x,,,,,,,,
,,6,,6,,4,,
4,,5,,3/5,,,,
{16}
7/4,,6,,2/5,,3h[8:1],,
,,6,4,5,,3,,
2/5,,3,,7/4,,6h[8:1],,
,,3,5,4,,6,,
7/4h[4:1],,,,6,,3,5,
3,,5,,2,,6/3,,
,,6h[4:1]/3,,3,,3,,
1/8,,2/7,,3/6,,4/5,,3b/6b,,,,
4/6-8-4[8:3],,,,6/3,,,,
2,,,,1,,,,3/5,,,,
3-1-5[8:3],,,,3/5,,,,
6,,,,7,,,,8/3,,,,
7-5-1[8:3],,,,7/2,,,,
3,,,,4,,,,2/8,,,,
2-4-8[8:3],,,,2/8,,,,
7,,,,6,,,,5/2,,,,
7<4[8:2]/3,,,,
4>1[8:2],,,,1<6[8:2],,,,
3,,,,
2>5[8:2],,,,
5<8[8:2],,,,8>3[8:2],,,,
Cf,,,,,,,,
5,,3,,3-8-5-2[16:7],,,,
3/6,,6h[8:4],,,,,,
,,1x,,,,7,,
7h[8:1],,4,,4h[8:1],,6,,
3/5,,2,,1/7h[8:2],,,,
3,,6,4,5,,3,,
5,,6/3,,,,3,,
3/7,,3,,3/8-4[8:1],,,,
3b/8b,,,,3hx[8:4],,,,
{16}
,,,,6pp1<6[8:7],,,,
6,,4hx[8:5],,,,,,
,,,,,,,,
2,,3,,4>2[8:1],,,,
8/4,,7,,6<8[8:1],,,,
6/2,,,,3qq4[8:4],,,,
,,,,5pp4[8:4],,,,
,,,,2hx[4:2],,,,
,,,,5q7[8:4],,,,
5,,2,,,,,,
,,2-5[8:1],,8-4[8:1],,2>8b[8:4],,
8,,2bx,,,,,,
,,,,,,,,
,,6/3,,,,6,,
6,,6/2,,6/1-5[8:1],,,,
7-5-3[8:2]/1b,,,,7b,,,,
,,,,2/5,,,,
5-8[16:3],,5-2[16:3],,,,,,
,,,,,,,,
7<4[16:3],,8,,7,,,,
2>5[16:3],,1,,2,,,,
7,,,,7pp6[4:2],,,,
,,,,3pp2[4:2],,,,
,,,,8,,,,
,,,,7pp4[8:4],,,,
7,,3h[8:5],,,,,,
,,,,6,,,,
,,,,2h[8:4]/6,,,,
,,,,,,6,,
7/3,,8xp4[8:3]/4xp8[8:3],,,,,,
,,,,,,,,
,,,,7<4[16:3],,,,
3>8[16:3]/7,,,,3,,,,
6,,6h[4:1],,,,4,,
4h[4:1],,,,7-4[8:1],,,,
2-6-8-3[8:4]/7,,,,2,,,,
,,,,5pp4[4:2],,,,
,,,,3qq4[4:2],,,,
,,,,,,,,
6,,,,6/2>5[16:3],,,,
6<1[16:3]/2,,,,6,,,,
3,,3h[4:1],,,,5,,
5h[4:1],,,,1-3-5[8:2],,,,
1,,,,E7f/B6/B7,,,,
,,,,Cf/E1/E5,,,,
,,,,E3f/B3/B2,,,,
,,,,,,,,
8-6-4[8:2],,,,8,,,,
1-3-5[8:2],,,,1,,,,
6,,6qq8[8:4],,,,,,
2,,,,1,,,,
2-4-6[8:2],,,,2,,,,
7-5-3[8:2],,,,7,,,,
1v6<3[8:4],,1,,,,,,
,,5,,,,5,,
3/5,,6,,7/5,,,,
1/8,,,,2/4,,,,
6/4,,,,3/5,,3,4,
2,,6,5,7,,3,4,
1,,6,5,8,,,,
3/6,,4,5,2,,3/6,,
7,,1/8,,,,6,,
6/4,,6,,6/3,,6,,
6/2,,6,,1bx/6bx,,,,
,,,,2b/B6/B5,,,,
,,,,1b/E8,,,,
2b/E7,,,,3b/E6,,,,
Cf,,,,7<5[8:1]/3>1[8:1],,,,
{16}
7bqq8[8:3]/3b,,,,7/3,,,2,
,,1,,1-3<4[8:1],,,,
1-7<6[8:1],,,,1b,,,,
,,,,7b-4[8:1]/3b-8[8:1],,,,
3bpp1[8:3]/7b,,,,3x,,,6,
,,7,,8-4[8:1],,,,
2q6[8:1]/8,,,,2/7<4[8:1],,,,
7,,1h[8:3],,,,,,
,,7h[4:1],,,,2,,
3/5,,6,,7/1-5[8:1],,6-8[8:1],,
1,,6,,,,4h[8:2],,
,,6,,5-7[8:1]/4-7[8:1],,,,
45,,,,4-2[8:1]/5-2[8:1],,,,
4-8[8:1]/5-1[8:1],,,,4bx/5bx,,,,
,,,,,,8,,
1/7,,,,2>5[8:1]/6<1[8:1],,,,
6bqq8[8:3]/2b,,,,6x,,,3,
,,2,,1>4b[8:1]*<6b[8:1],,,,
1w5b[8:1],,,,1b,,,,
,,,,3-8[8:1]/7-4[8:1],,,,
3bpp1[8:3]/7b,,,,3x,,,6,
,,7,,8v3[8:1],,,,
8,,2>5[8:1],,,,2/6h[8:3],,
,,,,4,,,,
,,2h[4:1]/8,,,,7,,
6/4,,3,,2b/7b-3[8:1],,,,
7b/1b-5[8:1],,,,1b/E7f/B6/B7,,,,
,,,,3h[4:1]/5x-7[8:1],,,,
5,,2qq4[8:3],,,,6,,
6,,6,,6hx[4:1],,,,
2,,7pp5[8:3],,,,3,,
3,,3,,3,,,,
7,,3h[8:3]/6h[8:3],,,,,,
,,2h[4:1],,,,7,,
4/6,,3,,2/8,,7v4[8:1],,
8>3[8:1],,7,,8,,5x,,
{16}
6x,,4xh[8:1]/7,,
,,6,4,5,,3,,
2/5,,3,,7/4,,6h[8:1],,
,,3,5,4,,6,,
7/4h[4:1],,,,6,,,3,
3/5,,8,,3/6,,,,
2,,3/5,,7,,4h[8:2]/6,,
,,6,,3/5,,1/8,,
,,2/7,,4/5,,6,4,
5,,3,,3/6,,2,,
1/8,,,,3/6,,,,
1b/8b,,3b/6b,,,,,,
,,,,,,,,
