&title=All for the Time
&artist=Taishi
&first=0.02
&des=Dusk
&lv_5=13+
&lv_6=14+
&inote_5=(180)
{1},,,3-6[2:3],,2-7[2:3],,1-4[2:3],,8-5[2:3],,{4}7-2[2:3],3h[8:1],4,3,{1}4h[2:1],{4}6-3[2:3],7,7,8,{1}7h[2:1],{4}5-8[2:3],3,4,3,{1}4h[2:1]
,{4}4-1b[2:3],7,7,8,{1}7h[2:1],
{4}6h[4:3],{8}B5,E5,,B3,E4,,5h[4:3],,B4,E4,,B2,E3,,4h[4:3],,B5,E6,,B7,E7,,3h[4:3],,B4,E5,,B6,E6,,{4}2<7[2:11],3,4,4,6,3,4,5,3,4,5,3,4,5,3,4,5,2,3,4,1,2,3,4,
{8}6-1[2:3]/5b,5/6,,,4h[4:1],,,3h[8:1],,2h[8:1],,2h[8:1],,3,4h[8:1],,5-8[2:3],4,5,,4h[4:1],,,3,3,2,2h[8:1],,1,2,3h[8:1],,4-7[2:3],4,3h[8:1],,2,2h[8:1],,1,8h[8:1],,1,8h[8:1],,1,2,3,3-6[2:3],4,5h[8:1],,6,6,7,8,8h[4:1],,,,7,8,1,2,
{8}3-8[2:3],3,4h[8:1],,5h[8:1],,5,6h[8:1],,7h[8:1],,7h[8:1],,6,5h[8:1],,4-1[2:3],5,4,,5h[8:1],,6,6,7,7,6h[8:1],,8,7,6h[8:1],,5-2[2:3],5,{16}6,6,{8},7,7h[8:1],,8,{16}1,1,{8},8,{16}1,1,{8},1,8,7,6-3[2:3],5,4h[8:1],,3,3,2,1,{2}1h[4:1],8h[4:1],
{4}1h[4:1]/7,6h[8:1],2/5h[4:1],3h[8:1],4h[4:1]/6-3[2:1],,2h[4:1],,2/8h[4:1],3h[8:1],4h[4:1]/7,6h[8:1],3-6[2:1]/5h[4:1],,7h[4:1],,1/8h[4:1],2h[8:1],3h[4:1]/7,6h[8:1],4-8[2:1]/5h[4:1],,2h[4:1],,8/1h[4:1],7h[8:1],6h[4:1]/2,3h[8:1],5-1[2:1]/4h[4:1],,7h[4:1],,{1}2-6-8>4[2:3]/8h[4:3],5h[4:3],4h[4:3]/6V82>5[2:3],1h[4:3],{1}Ch[4:15],,,,
{1}2-7[2:3]/1-4[8:1],6-3[8:1],5-8[8:1]/6-3[2:3],{2}2-7[8:1],C,{1}7-2[2:3]/8-5[8:1],3-6[8:1],3-6[2:3]/4-1[8:1],{8}8b,8h[4:1],,,1b,1h[4:1],,,
{4}2-5[2:3],{12}1,1,1,{4}1h[8:1],{12}8,8,8,{4}8h[8:1],{12}7,7,7,{4}7h[8:1],{12}6,6,6,{8}6h[8:1],5x,{16}7,8,7,8,{4}7h[8:1],{16}2,1,2,1,{8}2,3/8,{16}4,5,4,5,{4}4h[8:1],{16}7,8,7,8,
{4}7-4[2:3],{12}8,8,8,{4}8h[8:1],{12}1,1,1,{4}1h[8:1],{12}2,2,2,{4}2h[8:1],{12}3,3,3,{8}3h[8:1],4x,{16}5,5,5,5,{8}5,4/6,{24}3x,2x,1x,8x,7x,6x,{4}5hx[4:1],{12}3,4,2,6,5,7,1,8,1,
{4}8-4[2:3],{12}7,7,7,{4}7h[8:1],{12}2,2,2,{4}2h[8:1],{12}6,6,6,{4}6h[8:1],{12}3,3,3,{8}3h[8:1],4x,{16}2,1,2,1,{4}2h[8:1],{16}7,8,7,8,{8}7,1/6,{16}3,4,3,4,{4}3h[8:1],{16}1,8,1,8,
{4}1-5[2:3],{12}2,2,2,{4}2h[8:1],{12}7,7,7,{4}7h[8:1],{12}3,3,3,{4}3h[8:1],{12}6,6,6,{8}6h[2:1],5hb[8:3],{4},{12},5x/6x,5x/6x,{4}5/6,{1}4qq5[2:1]/7pp5[2:1],
{4}2-5[2:3]/6b,{8}6,7,{4}8-3[8:1],,1h[8:1],{8}8,7,{4}6-1[8:1],,4-1[2:3]/7,{8}8,7,{4}6-3[8:1],,5h[8:1],{8}6,7,{4}8-5[8:1],,3-6[2:3]/6,{8}7,8,{4}1-4[8:1],,2h[8:1],{8}1,8,{4}7-2[8:1],,5-2[2:3]/1,{8}1,8,{4}7-4[8:1],,6h[8:1],{8}7,8,{4}1-6[8:1],,
{4}7-4[2:3]/3b,{8}3,2,{4}1-6[8:1],,8h[8:1],{8}1,2,{4}3-8[8:1],,5-8[2:3]/2,{8}1,2,{4}3-6[8:1],,4h[8:1],{8}3,2,{4}1-4[8:1],,6-3[2:3]/3,{8}2,1,{4}8-5[8:1],,7h[8:1],{8}8,1,{4}2-7[8:1],,4/8,{8}8/4,1/5,{4}2-5[8:1]/6-1[8:1],2x/6x,{1}4bpp8[2:1]/8bpp4[2:1],
{4}2-5[2:3]/5h[8:1],{8}6,7,{4}8-4[8:1],8,1h[8:1],{8}8,7,{4}6-2[8:1],6,4-1[2:3]/7h[8:1],{8}8,7,{4}6-2[8:1],6,5h[8:1],{8}6,7,{4}8-4[8:1],8,3-6[2:3]/6h[8:1],{8}7,8,{4}1-5[8:1],1,2h[8:1],{8}1,8,{4}7-3[8:1],7,1/5-2[2:3],{8}6,7,{4}8-4[8:1],8,{16}1h[8:1],,,E1,,,E8,,E7,,,E6,,,E5,,
{4}7-4[2:3]/4h[8:1],{8}3,2,{4}1-5b[8:1],1,8h[8:1],{8}1,2,{4}3-7b[8:1],3,5-8[2:3]/2h[8:1],{8}1,2,{4}3-7b[8:1],3,4h[8:1],{8}3,2,{4}1-5b[8:1],1,6x/3h[4:1],{8}4,4,2h[4:1]/5x,5,4,4,1h[4:1]/5x,6,7,{16}8x,8x,{8}8x,1,{16}1,1,1,1,{8}1,8,{16}8,8,8,8,{8}8,1,{16}1,1,1,1,{32}1hx[64:1],2hx[64:1],3hx[64:1],4hx[64:1],5hx[64:1],6h[64:1],7h[64:1],8h[64:1],1hx[64:1],2h[64:1],3h[64:1],4h[64:1],5h[64:1],6h[64:1],7h[64:1],8h[64:1],{12}1h[64:1],2b/7b,3b/6b,{4}4b-8[8:1]/5b-1[8:1],
{16}4>5[2:15]/5<4[2:15],Cf,{8},{1},,,,,,,{4},,,E7/C/E3,
&inote_6=(180)
{1},,,
{4}3/4h[4:1],{8}3,4h[4:1],3,,3h[4:1],,4-1[2:1],2,{4}4,,,{8}6/5,6/5,6h[4:1]/5,,5h[4:1],,6h[4:1],,5-8[2:1],7,{4}5,,,1/2h[4:1],{8}1,2h[4:1],{4}1,1h[4:1],{8}2-5[2:1],8,{4}2,,,{8}7/8,7/8,{4}7/8h[4:1],7h[4:1],8h[4:1],{8}7-4[2:1],1,{4}7,,,
1/8h[4:1],{16}2,2,1,1,{4}2h[4:1],7h[4:1],{8}1-4[2:1],8,{4}1,,,{8}1h[4:1]/8,8,{4}7h[4:1],2h[2:1],1,{8}1-4[2:1],2,{4}1,,,1/8h[4:1],{8}2,1,{4}2h[4:1],7h[4:1],{8}8-5[2:1],6,{4}8,,,{8}1h[4:1]/8,8,{4}7h[4:1],2h[4:1],1,{8}8-5[2:1],1,{4}8,,,
3h[8:1]/4<7[2:1],{8}2,B2,,1,B1,,8>3[2:1],,7,B7,,6,B6,,5<8[2:1],,4,B4,,3,B3,,2>5[2:1],,1,B1,,8,B8,,{4}7pp2[2:11],E6,E5,E4,B6,B5,B4,B3,6,5,4,6,5,4,6,5,4,7,6,5,8,7,6,1,
{4}2bv3-5[2:1]/8h[4:1],,{8}7,7h[8:1],,6,6v7-1[2:1],5h[8:1],,4h[8:1],,3,2h[8:1],,3v2-8[2:1]/4,4,5h[8:1],,6,6,5,6,7v6-4[2:1]/8,1,1h[8:1],,2-6[8:1],3,2,,1x/2x,1x/8x,{24}7b-3[8:1],8,7,{8}8,1/7,1,1,5,3hb[8:1]/4hbx[8:1],,8,5hb[8:1]/6hbx[8:1],,1,2/8,3/7,4v3-1[2:1],5x,5h[8:1],,6,6h[8:1],,7,8v7-5[2:1],1,2h[8:1],,3,4,3,2,
{8}1-3v5[2:1]/5,6,7h[8:1],,8,8h[8:1],,7,6-4v2[2:1]/4,3h[8:1],,2h[8:1],,1,1h[8:1],,3-1v7[2:1]/8,7,6h[8:1],,5,5h[8:1],,4,8/4,1/5,2>6[4:1]/6,,6,7,8h[8:1],,1/7v6>4[2:1],1,{16}2,2,{8},3,3h[8:1],,2,{16}1v2>4[2:1]/5,5,{8},6,{16}7,7,{8},{16}8,7,{8}6h[8:1],,{8}5v6<8[2:1]/4,3,2h[8:1],,1,1h[8:1],,2,{2}3b>6[2:1],Ch[4:1],
{4}1v8[4:1]/7,8V24[4:1],7,6,5v6V82[2:1]/4,3,{16}2,3,4h[8:1],,{4},3v5[4:1]/4,5V31[4:1],6,7,1/8v1V75[2:1],2,{16}2,3,4h[8:1],,{4},1/2h[4:1],3h[4:1],4h[4:1],5h[4:1],{16}4x,3,2,1,{4}8V24[4:1],8/6h[4:1],,8/7h[4:1],6h[4:1],5h[4:1],4h[4:1],{16}5x,6,7,8,{4}1V75[4:1],1/3h[4:1],,{2}2qq7[2:3]/4h[4:1],5h[4:1],6h[4:1],5h[4:1],6qq3[2:3]/8h[4:1],1h[4:1],2h[4:1],1h[4:1],{1}Ch[4:15],,,,
{24}2h[8:3]/8bx,7,6,5,4,3,,1,8,7,6,5,4,3,2,1,8,7,6,5,4,3,2,1,8x/E4/B4,7,6,5,4,3,2,1,8,7,6,5,4,3,2,1,8,7,6,5,4,3,2,1,8x/3hh[8:3],7,6,5,4,,2,1,8,7,6,5,4,3,2,1,8,7,6,5,4,3,2,1,8x/E4/B4,7,6,5,4,3,2,1,8,7,6,5,{2}4hx[4:1]/3hx[4:1],{24}7h[8:3]/1bx,2,3,4,5,6,,8,1,2,3,4,5,6,7,8,1,2,3,4,5,6,7,8,1x/E6/B5,2,3,4,5,6,7,8,1,2,3,4,5,6,7,8,1,2,3,4,5,6,7,8,1x/6h[8:3],2,3,4,5,,7,8,1,2,3,4,5,6,7,8,1,2,3,4,5,6,,,{8}1b,1b,{24}2,3,4,8,7,6,{8}4b/5b,4hb[4:1]/5hb[4:1],,,
{4}2bv4^3-6[2:1]/7b,{12}8,8,8,{4}8h[8:1],{12}1,1,1,{8}1v7^8-5[2:1],,{12}5,5,5,{4}5h[8:1],{12}4,4,4,{4}4h[4:1],{24}3x,2x,1x,8x,7x,6x,{4}5h[4:1],{24}6x,7x,8x,1x,2x,3x,{8}4h[8:1],5h[8:1],{24}6x,7x,8x,1x,2x,3x,{4}4h[4:1],{24}3x,2x,1x,8x,7x,6x,{4}5b/4v2^3-8[2:1],{12}6,6,6,{4}6h[8:1],{12}7,7,7,{4}7v5^6-3[2:1],{12}2,2,2,{4}2h[8:1],{12}1,1,1,{8}1h[8:1],5,{24}5x,6x,7x,8x,1x,2x,{8}3hx[8:1],4,{24}3x,2x,1x,8x,7x,6x,{4}5/4,{12}5b,5,5,3b,3,3,1b,1,1,
{4}7bv4^6-3[2:1],{12}1,1,1,{4}1h[8:1],{12}8,8,8,{8}8v3^1-4[2:1],,{12}4,4,4,{4}4h[8:1],{12}5,5,5,{4}5h[4:1],{24}6x,7x,8x,1x,2x,3x,{4}4h[4:1],{24}3x,2x,1x,8x,7x,6x,{8}5h[8:1],4h[8:1],{24}3x,2x,1x,8x,7x,6x,{4}5h[4:1],{24}6x,7x,8x,1x,2x,3x,{4}4b/5v8^6-1[2:1],{12}3,3,3,{4}3h[8:1],{12}2,2,2,{4}2v5^3-6[2:1],{12}7,7,7,{4}7h[8:1],{12}8,8,8,{24}8x,7x,6x,5x,{48}4x,D4,3x,D3,2x,D2,1x,D1,8x,D8,7x,D7,6x,D6,5x,D5,{12}4bx,2bx,8bx>3s7[12:7],{4}6bxz2b[2:1],{1},
{4}1bv8V24[2:1]/8b,{8}6,5,4,,1,8,3/7v4V68[2:1],,2,1,{2}8-2[8:1]*-4[8:1],{8}3-6-4-2-8[2:1]/5,,6,7,8-4[8:1],,7,6,5V73[4:1],4,3^4-8[4:1],2,{2}1h[4:1],{4}2-4-1-5[2:1]/7,{8}7,6,5,,8,7,6v5V71[2:1]/4,,3,2,1-5[8:1]*>3[8:1],,,,7v4[8:1],4x<7[8:1],7xV51[4:1],1x,2,3,4,3,2v5b[8:1],5x>2b[8:1],2xV48b[4:1],8x,7,6,5,6,
{4}1/7v6V82[2:1],{8}2,3,4,,5,4,3v8^1-5[2:1]/8,,7,6,{2}5-8[8:1]*-2[8:1],{4}1/6v1<4[2:1],{8}2,3,4-8[8:1],,3,2,1V37[4:1],8,7V15[4:1],6,{4}5<3[4:1],,4h[8:1],{8}4,5,4/6hb[8:1],,5,4,3hb[8:1]/5,,5,6,5/7hb[8:1],,4,3,{24}2b,4,2,{8}4,1x,8x,{24}7b,5,7,{8}5,8x,1x,{24}1x,2x,3x,4x,{48}5x,D6,6x,D7,7x,D8,8x,D1,1x,D2,2x,D3,3x,D4,4x,D5,{12}5bx,7bx
,1bx,{4}3bx,
4bv6^5-1[2:1]/5,{8}3,2,{2}1-7[8:1]*-3[8:1],{8}6-2[8:1],2V86-4[4:1],6,4-8[8:1],3,2-4b[8:1],1-5[8:1],2-6[8:1],1b,2,7,8,3-5[8:1]/5,,6,7,8>2[8:1],2<4[8:3],8,3,4-8b[8:1],,1,,3-5-2-6[4:1]/7,,6-1[8:1],7,8,,7x/8x,1/6,2-4[8:1]/5,4V28[4:1],2,5,6-8[8:1],,6-4[8:1],1,6-2[8:1],2,6V84b[4:1],3,6,4,3,2,1-5[8:1],7-3[8:1],1>3-7<5[8:3],7,1,5-1b[8:1],{4},8bv7>1-5[2:1],{8}3,4,{2}5<7[8:1]*>3[8:1],{4}1/2-4-8-6[2:1],{8}8,7,6-2[8:1],5,4,3,1b-5[8:1]/8,1/8-4b[8:1],1,8,3b-1[8:1],7-5b[8:1],3,7,2b>5[8:1],6<1b[8:1],2,6,3b,2x/4x,1/5,6/8,7-4[8:1],7,4,3,2-6[8:1],2,{12}8-4[8:1],8,8,{4}8,{12}1-5[8:1],1,1,{4}1,{12}3-7[8:1]/4-8[8:1],3/4,3/4,{4}3/4,{12}5-1[8:1]/6-2[8:1],5/6,5/6,{4}5/6,{12}7/8,7/8,7/8,{24}7x,6x,5x,4x,{48}3x,D3,2x,D2,1x,D1,8x,D8,7x,D7,6x,D6,5x,D5,4x,D4,{12}3bx,1bx,7bx,{4}4bx-8[8:1]/5bx-1[8:1],
{16}4>5[2:15]/5<4[2:15],E4/E6/B6/B7/B1/B8/B2/B3/Cf,{8},{1},,,,,,,{4},,,{48}D7,E7,B6,B3,E3,D3,{8},{4},,,
