&title=ファシネイター
&artist=MARETU
&first=0
&des=Sc_Ar
&lv_5=14
&inote_5=(140)
{1}
,
{2}5h[4:1],5h[4:1],{4}5h[8:1],5h[8:1],5h[8:1],
{16}5h[8:1],,1,3,2h[8:1],,8,6,7h[8:1],,3,4,2h[8:1],,6,5,7h[8:1],,2,1,3h[8:1],,7,8,6h[8:1],,
{16}3<6[8:1],4,2,5,1h[4:1],,,,7,8,6-1[32:3],5,7,5,6,,3-8[32:3],4,2,4,3,,,
{16}7,5,6>3[32:3],4,,1,6,,8,5,,1-4[32:3]/5-8[32:3],,,,,,,,
{16}2/6,,2/4,5,2,6,2,7,2/8,,2/4,5,2,6,2,7,2/8,,2,4,,6,8w4[8:1],,8,,,,,,
{16}7V58[16:3],6,5,,,,,,1V38[16:3],2,3/4,,,,,,7,6,{8}1/5,2/6,4v1[32:3]/8-5[32:3],1/5,
{8}8/4V68[16:3],,,,{16}3h[8:1],,4,2,6,6,5,7,{32}1,2,3,4,5,6,7,8,{4}1b,
{8}7/4<1[4:1],2,4/1V75[32:7],3,5V38[4:1],3,1,2,4h[8:1],6h[8:1],8h[8:1],2h[8:1],4h[8:3],6-1[32:3],,6,
{8}5>8[4:1],7,5/8V24[32:7],6,4V61[4:1],6,8,7,5h[8:1],3h[8:1],{16}7,1,5V31[16:3],3,{8}8h[8:3],5,,,
{8}2-5[8:1],5-2[8:1],2V84[32:7],8,7V51[32:7],6,7,3,2h[8:3],8,6,4-1[32:3],6h[8:3],4,,8,
{8}7-4[8:1],4-7[8:1],7V15[32:7],1,3-1[32:3],4-8[32:3],3,4,2h[8:1],7h[4:1],{16}3,4,5,6,8,7,6,5,{8}4-8[32:3]/3,2/1,
{8}4/3,,,{16}7h[8:1],,5,,5h[16:1],4,,4h[16:1],2,,1/8<5[32:3],,,,,,2h[8:1],,4,,4h[16:1],5,,5h[16:1],7,,1>4[32:3]/8,,,,,,
{16}6,5,6,,7/8,,1/2,,3/4,,{8}6<1[8:1]/1,5,4,3,7/2>5[8:1],1,8w4[32:3],7,8,,,
{16}6h[8:1],,3h[8:1],,8,2h[8:1],,7,1,,6v4[32:3]/8,,,,,,3h[8:1],,6h[8:1],,1,7h[8:1],,2,8,,3v5[32:3]/1,,,,,,
{16}7,8,7,,6/5,,4/3,,2/1,,{8}4/7v5[8:1],3V51[32:7],7,3,8h[4:1],,{16}3,7,2,6,
{8}1-5[32:3],,1/7,6,4/7,{16}2,5,,7,4,,1<6[32:3]/3,,,,{8}4,3,5/2,{16}7,4,,2,5,,8>3[32:3]/6,,,,5,,
{16}6,4,{8}5,2/8,3/5,1s5[16:17]/7,4/6,3,2,1,7,8,1-5[32:3],2,1,,
{8}7,3,5/8,{16}2,4,,7,5,,8<5[32:3]/3,,,,{8}4,{16}2,3,4/1,,7,5,,2,4,,1>4[32:3]/6,,,,{8}7,6,5,
{16}3/4,3/4,,1pp5[8:5]/2,1/2,,{8}1/7,6,6-8[8:1],6,6,,,,
{4}3>6[2:1],8-4[4:1],{8},,,5,3>8[16:3],1<6[16:3],7<4[16:3],5>2[16:3],3,,,
{8}6,7,3/5,2-6[8:1],4/6-2[8:1],2,8<5[8:1],8,8pp4[4:3],,,7,6,5-7[8:1],,,,
{8}3h[8:3],5,6,7h[2:1],,4,3,2h[2:1],,6,7,8,1-7[32:3],1pp3[32:5],,,5,,5/7,,7/3,7,
{8}7/1-5[32:3],7-3[32:3],1b>4[32:3],7b<4[32:3],1b-5[32:3],7b,1b,,,
{16}3,4,1,5,4,5,7,5,4,5,2,5,4,5,8,5,4,5,2,5,4,5,7,5,4,5,1>4[32:3],5,1,,,,6,5,
{16}7-3[32:3],8,7,6,7,,2-6[32:3],1,2,3,2,,,{16}7,5,6>3[32:3],4,,1,6,,8,5,,1v3[32:3]/5v7[32:3],,,,,,,,
{16}2/6,,2/4,5,2,6,2,7,2/8,,2/4,5,2,6,2,7,1b,5,3,8b,4,6,1bw5[8:1],,1b,,,,,,
{16}2V41[16:3],3,4,,,,,,8V61[16:3],7,6/5,,,,,,2,3,{8}8/4,7/3,5-8[32:3]/1v4[32:3],8/4,1/5V31[16:3],,,,
{8}8>5[4:1],6,8/5V31[32:7],7,1V74[4:1],7,5,6,8h[8:1],2h[8:1],4h[8:1],6h[8:1],8h[8:3],2-5[32:3],,2,
{8}1<4[4:1],3,1/4V68[32:7],2,8V25[4:1],2,4,3,1h[8:1],7h[8:1],3h[8:1],5V31[16:3],{16}3,7h[16:5],5,,,,,,
{8}7-4[8:1],4-7[8:1],7V15[32:7],1,2V48[32:7],3,2,6,7h[8:3],1,3,5-8[32:3],3h[8:3],5,,1,
{8}2-5[8:1],5-2[8:1],2V84[32:7],8,6-8[32:3],5-1[32:3],6,5,7h[8:1],2h[4:1],{16}6,5,4,3,1,2,3,4,{8}5-1[32:3]/6,7/8,
{8}4/5,,,{16}2,,3/4,,6,5/6,,7,7/8,,8/1>4[32:3],,,,,,7,,6/5,,3,4/3,,2,2/1,,1/8<5[32:3],,,,,,1,2,
{8}3/4-8[32:3],2-5[32:3],4,2,{8}7<4[8:1],8,1,2,6/3>8[8:1],4,5w1[32:3],6,5,,,
{16}5,,7,,1/2,2,,3/4,4,,5/6<1[32:3],,,,,,4,,2,,8/7,7,,6/5,5,,4/3>8[32:3],,,,,,7,6,
{8}5,3/1,2/8pp4[16:7],1/7,8/6,5,5,5,{16}5,5,1,6,2,7,3,8,
{8}4-8[32:3],,2/4,3,{16}5/7,,5,4,,4,2,,1p5[8:1]/3,,,,4,,3,,4/2,,4,5,,5,7,,8q4[8:1]/6,,,,7,,
{16}6,5,{8}6,3/4,1/2,8z4[16:17]/7,5/6,3,1,7,4,6,8-4[32:3],2,8,,
{8}2,5,4/7,{16}3,1,,6,8,,1>4[32:3]/7,,,,{8}6,{16}7,5,6,,3,2/4,,6,5/7,,
{8}8-4[20#224:3]/3h[1:1],5,2,7,8,6,2,1,,,,,,{24}1,2,3,{8}4/8b,,
{8}1v4[32:3]/7qq5[32:3],2/8,,,3v5[32:3]/2v8[32:3],6/7,,,1/7,3-7[32:3]/5,{16}8,7,6/3,,5w1[32:3],,{24}2,3,4,{8}5b,,
{8}4q1[32:3]/7v5[32:3],2/5,,,3pp5[32:3]/2v8[32:3],6/7,,,2-6[8:1]/4,8/6-2[8:1],2,8,{12}8>5[8:1]*-5[8:1],1/7,2/6,8b,,,
{8}2pp4[32:3]/6v8[32:3],4/8,,,6-1[32:3]/5v3[32:3],3/4,,,4-8[32:3]/7,2-5[32:3]/5,1/4,2,1h[8:1],{24}5,4/8,3/7,{4}2b/6b,
{8}3/4,5/6,3/2,7/6,{16}1,8,1,8,1/8,1/8,1/8,1/8,{8}1b/8b,2b/4b,5b/7b,1b/3b,{12}8w4[32:3],8,8,{8}8b,,
{8}1-5[8:1]/7,3/5V38[16:3],1/7qq4[32:11],,7,,1,,3v8[8:1]/5,6/8>5[16:3],3,,{32}7V51[32:5],6,,,{8}8,7,3,
{8}8-4[8:1]/2,6/4,8/2pp5[32:11],,{32}2/6-1[32:3],7,8,,,,,,{8}6,,3v8[32:3]/7-4[32:3],2/6,3/7,,{16}3,1,2,8,1,7,8,,
{8}8-4[8:1]/2,6/4V61[16:3],8/2pp5[32:11],,2,,8,,6v1[8:1]/4,3/1<4[16:3],6,,{32}2,3h[32:3],,,{8}8h[8:1],
{32}3,4,5,6,7,8,1,2,{8}5-1[8:1]/3,7/1,5/3qq8[32:11],,{32}3/7-4[32:3],6,5,,,,,,{8}7,,2v5[32:3]/6-1[32:3],3/7,2/6,,
{32}8w4[32:3],7,6,5,4,3,2,1,{4}8,
{8}1-5[8:1]/7,3/5V38[16:3],1/7qq4[32:11],,7,,1q4[32:11],,1/7-2[32:3],,,,{32}7-4[32:3],6,,,{8}1-5[32:3],7,1,
{8}8qq5[32:11],6/4,8/2-4[32:3],,2-8[32:3],,2/6,,3V15[32:7]/7-4[32:3],2/6,3/7,,8,4/6,1,3/5,
{8}8-4[8:1]/2,6/4V61[16:3],8/2pp5[32:11],,2,,7-2[32:3],,7/1q4[32:11],,1,,{32}7V58[32:5],6,,,{8}8,7,3,
{8}1pp4[32:11],3/5,1/7-5[32:3],,7-1[32:3],,7/3,,6V84[32:7]/2-5[32:3],7/3,6/2,,1,5/3,8,6/4,
{4}1h[4:1],(130){8}7,3,(120){8}6,4,
(110){8}5,3,{4}4h[8:1]/6h[2:7],4h[8:1],4h[8:1],4h[8:1],4h[8:1],4h[8:1],4<8[8:1],,
{8}1-4[8:1],2,{4}1,{8}3-8[8:1],4,{4}3,1h[8:1],2h[8:1],4w8[32:3],4,
{8}1h[8:1]/4,5,{16}1h[16:3],6,,7,
(105){8}1h[8:1]/4,5,{16}1h[16:3],6,,7,(100){8}1h[8:1],{16}7,5,,3,1w5[8:1],,{8}1,,,{16}2V41[32:25],3,
(95){8}4,,,{16}8V61[16:3],7,(90){8}6,,,{16}2,3,{8}4/8,(85)3/7,2/6pp5[16:7],4qq5[16:5]/8,6/2,4,(80),,
(140){8}7-4[8:1],4-7[8:1],7V15[32:7],1,3-1[32:3],4-8[32:3],3,4,2h[8:1],4h[8:1],6h[8:1],8h[8:1],2,4p8[8:1]/6v1[8:1],
