&title=独創収差
&artist=Afterglow
&first=0.02
&des=STEXxx
&lv_5=13+
&inote_5=(126){4},{16},,,,3,,,3h[4:1],{4}B4,
{16},3,{8}5,,2-6[8:1],,7-4[8:1],,3>7[4:1],
,7<3[4:1],{16},,,,,,B7,B6,E6,,,4,
,3,{8}5,,3-7[8:1],,6-1[8:1],,2>6[4:1],
,6<2[4:1],{16},,,,5,5h[16:3],,,3h[8:1],,,4,
,2,{8}7-4[8:1],,3-8[8:1],,5-2[8:1],,1-6[8:1],
,4h[8:3],{16},,,,8,8h[16:3],,,6h[8:1],,,1,
,3,{8}6<1[8:1],,2>5[8:1],,8p4[8:1],,3>7[4:1],
,6h[4:1],{16},,,,6,5,6,4,6,3,6,3,
5,3,4,2,5,3,6,4,7,4,8,3,1,3h[4:1],{48}D4,A4,D5,A5,D6,A6,
D7,A7,D8,A8,D1,A1,D2,A2,D3,A3/D4/E4,,,{4}2x-6[16:1],{8}2b/6b,{16}7h[16:1],5h[16:1],6-3[16:1],4h[16:1],{8}7h[16:1],
1/6x,{16}1h[16:1],8h[16:1],2-6[16:1],7h[16:1],{8}3h[16:1],7/2x,{16}7h[16:1],5h[16:1],6-3[16:1],4h[16:1],{8}7h[16:1],
1/6x,{16}1h[16:1],8h[16:1],2-6[16:1],7h[16:1],{8}3h[16:1],2x/8h[16:1],7h[16:1],4,5/1h[4:1],
{16}5x,6,7,8h[16:3],1x,2,3,4h[16:3],5x,6,7,8,4,8,4,7,
4,6,4,5,{8}4h[8:3],5,{48}3bx,2,1,8,7,6,{8}5h[4:1],{48}4v7[16:1],3,2,1h[8:1],,,,,,,,,{8}4b,
{16}1v4[16:1],1,,6,{8}6-2[16:1],{16},3,,,{4}1v6[16:1]/4>1[16:1],
{8}1x/4x,{16}7v2[16:1],7,,1,{8}1-5[16:1],{16},6,,,{4}2v5[16:1]/4<7[16:1],
{8}4x/2x,{16}8-4[16:1],8,,5,{8}5v2[16:1],{16},7,,,{4}3-5<6[16:1]/7-1>2[16:1],
{16}7x/3x,,,5,{8}5h[8:1],{16}1,1h[8:1],,8h[8:1],,,{4}4V68[16:1]/8z4[16:1],
{8}8x/4x,{16}3-8[16:1],3,{48},,,,,,8x-3[16:1],7x,6x,5x,{24}4h[8:1],,,,,,,{4}5v8[16:1]/2>6[16:1],
{8}2x/5x,{16}1q5[16:1],1,{8}5x,{48}5xq1[16:1],6x,7x,8x,{24}1h[8:1],,,,{8}5<3[8:1],{4}2h[16:3],
{16},,4,4h[6:1],{8}1h[6:1],8h[8:1],{4}4<8[16:1],{48}8,1,2,3,{6}4h[48:7],
{8}8,{16}7,7h[8:1],,6,{8}6h[8:1],{32}5<3[16:3]*V71-3[16:3],4,3,2,,,,,,,,,,,,,,,,,{16}4,
5,{8}3h[8:1],{16}4,5h[8:1],,2,{8}5,,5>3[8:1],
,2<7[8:1],,6>2[4:1]*p1[4:1],,6,{16},,,,,,4,
5,{8}3h[8:1],{16}4,5h[8:1],,2,{8}5,,5-7[8:1],
,8-4[8:1],,7p1[4:1]*<2[4:1],,7,{16},,,,6-8[8:1],
6,,1h[16:1],,,1-5[8:1],1,,6,{8}6-2[8:1],,3-7[8:1],
,8-4[8:1],,5-1[8:1]*v8[8:1],,5,{16},,,,7-5[8:1],
7,,4h[16:1],,,4-8[8:1],4,,7,{8}7-3[8:1],,2-6[8:1],
,5-1[8:1],,8q4[16:3]*p4[16:3],,8,{16},,,,4,
5,3,6,{8}2h[8:1],6h[8:1],1-5[8:1],5,{4}1,
{16}4,5,3,6,{8}2h[8:1],6h[8:1],1,2/8,7,6/8,
{16}5,4,6,3,{8}7h[8:1],{16}3h[8:1],8,{8}8-4[8:1],4,{4}8,
{16}5,4,6,3,{8}7h[8:1],3h[8:1],8,7/1,2,3/1,
4/2,{16}4,5,{8}3,6/4,5/7,{16}5,6,{8}4,7/5,
6/4,{16}6,5,{8}7,4/6,5/3,{16}5,4,{8}6,3/5,
4,3/5h[16:1],2,1/3h[16:1],8,7/1h[16:1],6,5/7h[16:1],
4,3/5h[16:1],6/2,4/8,7/3,5/1>4[8:1],6/2,1/7,
{16}8,5,7,4,6,3,5,2,8/2,5,7,4,6,3,5,2,
7/2,4,6,3,5,2,4,1,7/1,4,6,3,5,2,4,1,
1/6,5,8,8,{8}3x-6[16:1],1h[8:1],{16}3x,8,5,7,4,6,3,6,
6,3,3,7,4,8,5,1,1/5,8,8/4,7,7/3,6,5,4,
{8}7b-2[12:1]/3b-6[12:1],2/6,{4}3/7,{12}8/4,{24}7,5,,6,{12}4,{24}7,5p1[8:1],,6,
{8}4,5/3h[4:1],,7-4[16:1],7-2[16:1],7-3[16:1],7,7pp3[4:1]*p4[4:1],
{2}7,{12}8/4,{24}7,5,,6,{12}4,{24}7,5p8[8:1],,6,
{8}4,5/2h[4:1],,8,2-7[8:1],4/5-8[8:1],2,5,
{4}1>7[16:3],{8}1/8,8,{12}8,{24}7,5,,6,{12}4,{24}7,5p1[8:1],,6,
{8}4,5/3h[4:1],,7<4[16:1],7>2[16:1],7-3[16:1],7,7V52[16:3]*v4[16:3],
{2}7,{12}8,{24}7,5,,6,{12}4,{24}7,5p8[8:1],,6,
{8}4,5/3h[4:1],,7-5[16:1],7>2[16:1],7-3[16:1],7,7>6[8:3]*p6[8:3],
7,,,,,8/1,2>5[8:1],4,
{16}2/1h[4:1],,,4h[16:3],,,{8}3,{16}2h[4:1],,,5h[16:3],,,{8}8,
{16}1/2,,,3/8,,,{8}7/4,6/5,5/4,3>8[8:1],1,
{16}3/4h[4:1],,,1h[16:3],,,{8}5h[8:1],{16}4,,,2/1,,,{8}7,
5h[16:3]/4>6[16:3],,,5h[8:1],,5/4,3>8[8:1],1,
{16}3/4h[4:1],,,1h[16:3],,,{8}2,{16}3h[4:1],,,8h[16:3],,,{8}5,
{16}4/3,,,2/5,,,{8}6/1,7/8,8/1,2>5[8:1],4,
{16}2/1h[4:1],,,4h[16:3],,,{8}8h[8:1],{16}1,,,3/4,,,{8}6,
{2}8h[8:5]/1>7[16:3],{48}A7,D7,A6,D6,A5,E5,{8}B4,{16}3,4,{8}1h[8:1],
8,{16}2x,6x,3x,7x,4x,8x,5x,8x,6x,8x,7x,8x,1x,8x,
2x,8x,3x,8x,4x-8[8:1],8x,4x,8x,{8}4h[16:1],6h[16:1],1h[16:1],{16}5,2,
5,3,5,4,6,3,6,3,7,2,7,2,8,1,8,1,
8,3,3,5,5x-1[16:1],3,{8}3x-6[16:1]*-6[16:1],1xs5[8:1],3x,{16},,,,4,
5,3,6,{8}2h[8:1],{16}E1,B2,{8}E8,B3/B4/E4,{4}B6/E7/B7/1x-5[8:1],
{16},,6,4,7,3,{8}8h[8:1],2-6[8:1],8-4[8:1],{16},,,,1,
8,2,7,{8}3h[8:1],{16}E5,B3,{8}E6,B2/B1/E2,{4}B7/E7/B6/4x-8[8:1],
{16},,7,1,6,2,{8}5h[8:1],3-8[8:1],7-4[8:1],,,2,
{16}4,5,{8}3h[16:1],4/6h[16:1],5/7h[16:1],{16}5,6,{8}4h[16:1],7/5h[16:1],
6/4h[16:1],{16}6,5,{8}7h[16:1],4/6,5/3,3/1,8/6,3/5,
6/4h[16:1],3/5h[16:1],4/2h[16:1],1/3h[16:1],2/8h[16:1],7/1h[16:1],8/6h[16:1],5/7h[16:1],
4/6,3/5h[16:1],6/2h[16:1],4/8,7/3,6/5<8[8:1],5/2,1/5,
1b,{16}1,7,{8}2,4b/5b,{16}2,7,1,8,2,7,1,6,
{8}4b/5b,{16}2,8,3,6,{8}4b/5b,{16}8/7h[8:1],,,1/6h[8:1],,,{8}5/2,
5b/4b,{16}3,7,{8}2,4b/5b,1/8,{16}2>6[16:3],2,,,{8}7h[4:1],
,,8/1,2,{4}1-5[8:1],{8}1,B7/E7/B6,
4b/8b,{16}3,7,2,6,{8}4b/5b,{16}3,7,2,8,1,7,1,6,
{8}2b/5b,{16}2,8,{8}3h[8:1],5b,{16}8/7h[8:1],,,1/6h[8:1],,,{8}5/2,
5b/3b,{16}2,8,3,7,{8}4b/5b,{16}1/6,,,7/1pp4[4:3],,,{8}8h[8:5],
,,,,,,,,8>8[4:3],
,,C,,,,,1<1[4:3],
,,B7/B6/E7,,,,,{4}B6/E6,
{8}B4,E4,,C,,E6/B6,
,E4,B3/B4,B5/B2/C,,,,,8h[8:3],
4,3,2,,,,,1h[8:3],
6,7,8,,,,8,
{4}8h[8:5],{8}4,4,,2,,1/7,
,8/5,,7/3,,1w5[4:3],
E
