&title=堕楽の園
&artist=gmtn.
&first=0.5
&des=abcabc
&des_5=abc
&lv_5=14
&inote_5=(168){4},,,,4>1[4:3],
{2},{4}5<8[4:3],
{2},Ch[2:1],
{4}8<5[4:3],{2},{4}1>4[4:3],
{2},C,
{8}5/4,6,4/5,{16}3,4,{8}3,3/4,{16}5,4,5,4,
6,5,{8}6,6/5,{16}3,4,{8}3,{16}5,4,5,4,{8}5,
{1}4bV68-4[1:1]/6bV82-6[1:1],
{2},{8}7b/2b,{16}4,5,4,6,{8}3,
8b/1b,{16}2,5,{8}2,{16}2,6,{8}2,{16}2,7,{8}2,{16}2,8,
{8}2,{16}2,1,{8}2,{16}2,3,{8}2,{16}2,4,{8}2,{16}2,5,
{8}2,{16}2,6,{8}2,{16}2,7,{8}2,{16}2,8,{8}2,{16}2,1,
{8}2h[4:1],3,7h[4:1],6,3h[4:1],4,{16}8,1,8,1,
{8}8,{16}6,5,{8}6,{16}3,4,{8}3,{16}6,5,6,5,6,5,
{8}6,{16}3,4,{8}3,{16}6,5,{4}7-3[8:1],3,
{16}1/2,{8},{16}4/3,{8},1/6,{2}7-4[8:1]/8-3[8:1],
{8}2b/5b,{16}3,4,{8}3,{16}6,5,{8}7b,8/2,{16}1,1,1,1,
{8}1b,{16}6,5,{8}6,4,{4}7/3h[4:1],{8}8,{16}3,4,
{8}3,5,{4}2/6h[4:1],{8}1,{16}5,4,{8}5,6,
7/3,{16}2,1,{8}2,8,{4}3/7h[4:1],{8}4,{16}7,8,
{8}7,1,{4}6/2h[4:1],{8}8,{16}3,4,3,4,{8}3,
2b/5b,{16}6,5,{8}6,7/3,{4}2/8h[4:1],{16}4,4,{8}4,
3b/5b,2/6,{4}7/1h[4:1],{8}5,{16}3,4,{8}5b/2b,6,
4b/7b,3,2b/5b,6,{2}1b/7bs3[8:1],
{8}5b/4b,{16}4,5,3,6,3,6,2,7,2,7,{4}1h[8:1]/8h[8:1],
{8}6b/2b,{16}7,1,{8}7,6/2,{16}7,1,{8}7,4/3,5/2,
{16}7,1,8,2,6,4,5,3,8,1,7,2,{8}6/3,4/5,
3/7,{16}8,2,{8}8,7/3,{16}8,2,{8}8,6/5,7/4,
{16}2,5,3,4,1,6,8,7,{32}1,2,3,4,5,6,7,8,6/1,5,4,3,2,1,8,7,
{8}6/3,{16}2,8,{8}2,7/3,{16}2,8,{8}2,5/6,4/7,
{16}2,8,1,7,3,5,4,6,1,8,2,7,{8}3/6,5/4,
6/2,{16}1,7,{8}1,2/6,{16}1,7,{8}1,4/3,2/5,
{16}7,4,6,5,8,3,1,2,{32}8,7,6,5,4,3,2,1,{4}8b/4b,
{16}2b,5,3,4,{8}2h[8:1],{16}7,4,6,5,{8}7h[8:1],1,1,
{32}7b,6x,5x,4x,{16},{32}1b,8x,7x,6x,{16},{32}3b,2x,1x,8x,{16},{32}5b,4x,3x,2x,{16},{8}7b,7b,
{16}8b,4,7,5,{8}6h[8:1],{16}3,4,2,5,{8}1h[8:1],8,7/2,
5,7b/1b,4,8b/2b,5,8b/1b,7b/2b,4/5,
{16}3b,4,3,5,{8}2h[8:1],{16}6,5,6,4,{8}7h[8:1],1-5[8:1],1,
{16}5b,6,7,8,{24}1/6,7,8,1,2,3,{4}4h[4:1]/8-4[8:1],8,
{8}3b/5b,{16}2,6,{8}2,7/1,{16}6b,2,{8}6,3/5,5/3,
{16}6b,5,7,3b,4,2,{8}8b,{12}1b,1b,1b,7b,7b,7b,
{8}2b/6b,{16}3,4,{8}3,5,{4}2/6h[4:1],{8}1,{16}6,5,
{8}6,4,{4}7/3h[4:1],{8}8,{16}4,5,{8}4,3,
2/6,{16}7,8,{8}7,1,{4}6/2h[4:1],{8}5,{16}2,1,
{8}2,8,{4}3/7h[4:1],{8}1,{16}6,5,6,5,{8}6,
7b/4b,{16}3,4,{8}3,2/6,{4}7/1h[4:1],{16}5,4,{8}5,
6b/4b,7/3,{4}2/8h[4:1],{8}1,{16}7,7/5,,2,{8}2/4,
{2}5b/4b-7[8:1]*-1[8:1],8b-3[8:1]*-5[8:1],
{16}4b/2b,3,{8}3,{16}5b/7b,6,{8}6,{16}2b,2,7,7,{24}1x,8x,2x,7x,3x,6x,
{32}5b/4b,Cf/E1/E8/E7/E6/E5/E4/E3/E2,{1},,{4},,,{16},{8}7,
{4}7b<2[2:1],{2},{4}1b-4[8:1],
{8},5b-8[8:1],{4},{2}2b>7[2:1],
{4},8b,{8}1b/8b,2b/7b,{4}6b/3b,
4b/5b-8[2:1],3,2,1-4[2:1],
7,6,5<8[2:1],3,
2,1>4[2:1],7,6,
{8}5b,5,4,4,6,6h[8:1],3b,3,
7,7,2,2h[8:1],{16}8,1,8,1,7,2,7,2,
6,3,6,3,{32}5,6,7,8,1,2,3,4,{12}1b/5,1b,1b,8b,8b,8b,
{8}2b/7b,{16}2,4,3,5,4,6,3,7,2,8,{8}1-5[8:1],{16}5,6,
{4}1/7-2[8:1],7/3-6[8:1],{8}8b/3b,{16}7,5,6x,4,5,3,
6,2,7,1,{8}8-4[8:1],{16}4,3,{4}8/2-7[8:1],2/6-3[8:1],
{8}6b/1b,{16}2,4,3x,5,4,6,3,7,2,8,{8}1h[8:1],{24}7,6,5,
{8}4-8[8:1],6/2,1,1,{16}7,2,6,3,5,4,5,4,
6,3,7,2,{8}1/8-4[8:1],7,8/2>5[8:1],1,{24}5/2,6,7,8,{12},{8}2b/7b,
{16}5,4,5,4,6,5,7,4,8,3,{8}1b/2b-6[8:1],3,
2b/1b-5[8:1],8,{4}1b/2b,{8}3/4,5/6,3/5,4/6,
5/2,7/4,1b/5b,{16}3,4,{8}2b/5b,{16}6,5,{8}7b/4b,1/8,
{16}6b,5,6,5,7,4,7,4,{8}8b/3b,1/2,5b/4b,{24}8/7,6/1,5/2,
{8}4/3,5/2,6b/1b,7/8,{16}5b,4,6,3,7b,2,8,1,
6b,3,5,4,7b,5,6,2b,4,3,{8}8bw4[8:1],6b/2b,8b,
{4},E7,C,E3,
{8}8b/1b,{16}6,5,{8}6,{16}2,1,{8}2,8/3,{16}6,5,6,4,
{8}7,{16}3,4,{8}3,{16}7,8,{8}7,6/1,{24}3,4,2,5,{12},{8}8b/1b,
{16}2,4,{8}3,{16}6,8,{8}7,4/5,{16}3,4,2,5,
1,2,3,7/4,6,5,{8}4/3,1-6[8:1]*-4[8:1],2/8,{4}1,
{8}8b/1b,{16}6,5,{8}7,{16}2,1,{8}3,4/5,{16}7,8,6,1,
{8}5,{16}3,4,{8}2,{16}6,5,{8}7<4[8:1],3/8,{24}4/7,3,2,1,{12},{16}8b,
7,8,7,4,5,4,5,2b,1,2,1,3,7,3,7,
5b,6,4,7,2b,1,3,8,{32}4b,5,6,7,8,1,2,3,8b/4b,7,6,5,4,3,2,1,
{1}8b/Cf,
{8}2b/1b,{16}3b/4b,4b/3b,{8}3b/4b,5b/6b,8b/7b,2b/1b,4b-1b[8:1]/5b-8b[8:1],2b/7b,
{1}4bx/5bx/Cf/E2/B2/B3/E8/B7/B6/E4/E6,
{16}6b/5b,5b/6b,{8}6b/5b,2b/8b,4b/5b,{12}7b/1b,7b/1b,7b/1b,{96}2,{48},{96}3,{48},{32}4,5,6,7,8,1,
{4}2w6[8:1],2b,{16}2,8,{8}2,4/3,5/2,
{16}7,8,6,1,5,2,4,3,8,1,7,2,{4}6h[8:1]/3h[8:1],
{8}5-8[8:1]/4-1[8:1],6/3,{4}5b/4b,{16}7,1,{8}7,6/5,7/4,
{16}2b,5,3,4,1,6,8,7,{32}1b/6b,2,3,4,5,6,7,8,{4}1b/5b,
{16}2b,5,3,4,{8}2h[8:1],{16}7,4,6,5,{8}7h[8:1],1,1,
{32}2b,3x,4x,5xh[32:3],{16},{32}8b,1x,2x,3xh[16:1],{16},{32}6b,7x,8x,1xh[32:3],{16},{32}4b,5x,6x,7xh[32:3],{16},{8}2b,2b,
{16}1b,5,2,4,{8}3h[8:1],{16}6,5,7,4,{8}8h[8:1],1,7/2,
1,3b/5b,8,4b/6b,1,4b/5b,2b/7b,8/1,
{16}7b,8,6,1,{8}5h[8:1],{16}2,1,3,8,{8}4h[8:1],5-1[8:1],5,
{16}1b,2,3,4,{24}5/2,3,4,5,6,7,{4}8h[4:1]/4-8[8:1],4,
{8}1b/7b,{16}6,5,{8}6,8/2,{16}3b,4,{8}3,{32}8/1,7/2,6/3,5/4,{8},{16}7b,
1,5,2b,8,4,{8}5b,{12}4b/6b,4b/6b,4b/6b,7b/3b,7b/3b,7b/3b,
{24}2,8,2,8,2,8,1h,1h,1h,1h,1h,1h,{32}1h,2,3,4,5,6,7,8,1,2,3,4,5,6,7,8,
{4}1w5b[8:1],{32}1b,Cf/E1/B8/B7/E7/E8/B1/E2/B2/E3/B3/E4/B6/E6/B5/E5/B4,
E
