&title=Loop
&artist=雄之助 / WaMi
&first=0
&des=JAZZANA
&lv_5=13
&inote_5=(114)
{1}
,
{8}35,,
{16},,,2,,,3,,,4,,,57,,,,,,,8,,,7,,,6,,,53,,,,,,,5,,,4,,,3,,,26,,,,,,,1,,,7,,
{16}3h[8:1]/6V47[4:1],,,,2/6b,,,,,,7,,4h[8:1],,6,6,3>6[4:1],,,,3/5,,,,,,5,4,6,,2,4,3q4[4:1]*q7[8:1],,,,,,
{16},,1<6[8:1],,,,12,,,,47,,38,,2/1v4[8:1],,,,21,,,,8p4[8:1]/2,,,,8/2q5[4:1],,,,,,,,,,
{16}7qq6[4:1],,7q3[8:1],,,,,,,,
{8}6<3[4:1],,,4-8[8:1],4,5-7[8:1],5,,1p5[8:1]*pp2[4:1],,,,7<5[8:1],,78,,2>4[8:1],,21,,1q5[8:1]/8p4[8:1],,18,,1b/8b,,
{8}2,7,4>1[8:1],1p4[8:1],,,6,3,8<5[8:1],5p8[8:1],,,2>5[8:1],1,2,,1q5[8:1],8,1,,7p3[8:1]/3p7[8:1],,3<8[4:1]/7,,,,1-5[8:1],2,8-4[8:1],7,,,
{8}3,5,4pp6[8:1]*qq2[8:1],6<1[8:1],,,2,8,1qq7[8:1]*pp3[8:1],7<4[8:1],,,3h[1:1],1<6[8:1],,,,1p4[8:1],,,,,2-5[8:1]/6,,6-3[8:1]/2,,2p6[8:1]/6,,6b<6[8:10]/2b>2[8:10],,,,,,,,,,,,,,
{8}3h[2:1],,,,5p4[2:1],,,,4>5[2:1],,,,4h[2:1],,,,6h[2:1],,,,4q5[2:1],,,,5<4[2:1],,,,,,,,
{8}6h[4:3],,,,4h[4:2],,,,5<8[4:1],,8>4[4:1],,4<1[4:1],,1-4[8:1]*p5[4:1],,,,
{16}3b,3b,,,
{8}6,2,8<5[8:1]/4>1[8:1],,8/4p6[8:1],,3h[8:1],,4p8[8:1],5,6v1[8:1],,1<6[8:1]*q5[8:1],,,,
{8}8,4,6<1[8:1]/2>5[8:1],,62,,7-5[8:1],1,7b-4[8:1],2,7bV16[4:1],3V52[4:1],7b,3,,,
{8}3,7,1>4[8:1]/5<8[8:1],,1/5q3[8:1],,7h[8:1],,5q1[8:1],4,3v8[8:1],,8>3[8:1]*p4[8:1],,,,
{8}2,6,4>1[8:1]/8<5[8:1],,4q6[4:1]/8,,,2,1b>4[8:1]*<6[8:1],,1b-5[8:1],,7-3[8:1],8,2,1,
{8}2-6[8:1]/8h[4:1],,2,,7-4[8:1],
{16}5,5h[16:3],7,,,,
{8}1-5[8:1]/8h[4:1],,1,,8-4[8:1],
{16}5,5h[16:3],8,,,,
{8}2-6[8:1],3,2/7-3[8:1],8,1b-5[8:1]/7b,,1-6[8:1]/7,8,1-4[8:1]/2,,18,,2-6[8:1]/7-1[8:1],16,27,,
{8}7-3[8:1]/1h[4:1],,7,,2-5[8:1],
{16}4,4h[16:3],2,,,,
{8}8-4[8:1]/1h[4:1],,8,,1-5[8:1],
{16}4,4h[16:3],1,,,,
{8}7-4[8:1],6,7/2-5[8:1],1,8-4[8:1]/2,,8-3[8:1]/2,1,8-5[8:1]/7,,4-1[8:1],,7<5[8:1],,3>1[8:1]*q7[8:1],,3bpp5[8:1],,,
{16},2,,,6,,,74,,,5b/6b,,,,2,4,3,3,7,5,6,6,3,5,3,5,4b/6b,,,,
{16}23,,,,45,,,,76,,,,8<6[8:1]/1,,,,1p5[8:1],,,,2pp4[8:1],,,,2,,,,4,6,5,7,3b>8[8:1],,,,3/8,,,,7<4[8:1],,,,74,,,,2,5,3,4,1,8,2,7,5,6,4,7,5b>2[4:1]/6b,,,,2<6[4:1],,,,6>1[4:1],,,,,,,,
{8}7v4[8:1],,3v8[8:1],,6p2[8:1],,8w4[8:10],,,,,,,,,,,,,,
{8}3h[2:1],,,,4pp4[2:1],,,,4>5[2:1],,,,4h[2:1],,,,6h[2:1],,,,5qq5[2:1],,,,5<4[2:1],,,,,,,,3h[4:1]/5<8[8:1],,5,,7h[4:1]/1p4[8:1],,1,,3-8[8:1]/7-4[8:1],,37,,
{16}2h[16:1],,7h[16:1],,2-6[8:1],,5,,2b/5b-8[8:1]*p1[8:1],,,,5b,,,,
{8}4,8,7<5[8:1]/3>1[8:1],,7/3p4[4:1],,6h[8:1],,5p8[8:1],6<8[8:1],8p3[8:1],,2>5[8:1]*q6[8:1],,,,
{8}3pp4[4:1],4<8[4:1],4p8[8:1],,,,2-4[8:1],5,2b-5[8:1],6,2b-6[8:1]/7b-1[8:1],6,2bV48[4:1]/7b,,2b,,
{8}6,2,5<8[8:1]/1>4[8:1],,1qq7[8:1]/5qq3[8:1],,,,4q1[8:1],3>1[8:1],1q6[8:1],,7<4[8:1]*p3[8:1],,,,
{8}7,3,5<8[8:1]/1>4[8:1],,5p3[4:1]/1,,,7,8b<5[8:1]*>3[8:1],,8bp4[8:1],,2q6[8:1],1,7,8,
{8}7q3[8:1]/1>3[8:1],,71,,2-5[8:1],
{16}4,4h[16:3],2,,,,
{8}8q4[8:1]/1>3[8:1],,81,,1-5[8:1],
{16}4,4h[16:3],1,,,,
{8}7p3[8:1],6,7/2q6[8:1],1,8b-4[8:1]/2b,,8>3[8:1]/2,1,8<5[8:1]/7,,81,,7p3[8:1]/2<8[8:1],83,72,,
{8}2p6[8:1]/8<6[8:1],,28,,7-4[8:1],
{16}5,5h[16:3],7,,,,
{8}1p5[8:1]/8<6[8:1],,18,,8-4[8:1],
{16}5,5h[16:3],8,,,,
{8}2-5[8:1],3,2/7-4[8:1],8,1-5[8:1]/7,,1<6[8:1]/7,8,1>4[8:1]/2,,5<8[8:1],,2>4[8:1],,6<8[8:1]*>4[8:1],,6q2[2:1]*p2[2:1],
