&title=葡萄茶の寫眞機
&artist=魔界都市ニイガタ
&first=0
&des=Dororo
&lv_5=14
&inote_5=(264)
{16}
,,,,,,,,,,,,,,,,
4h[1:1]`6h[1:1],,,,,,,,,,,,,,,,
,,,,3,,,,5,,3,,,,4h[8:3]`2h[8:3],,
,,,,,,,,1,,,,6h[2:1],,,,
4h[4:1],,,,,,78,,,,78,,,,2,,
2^5[2:1],,,,5,,,,6,,6,,,,7p3[2:1],,
,,3,,,,2,,2,,,,1,,,,
8^3[2:1],,,,7,,,,6,,6,,,,5q2[2:1],,
,,2,,,,3,,3,,,,4,,,,
7^4[2:1],,,,4,,,,3,,3,,,,2q6[2:1],,
,,6,,,,7,,7,,,,8,,,,
1qq6[2:3],,,,,,,,5qq2[1:1],,,,,,,,
,,,,,,,,,,,,,,,,
7qq4[1:1],,,,7,,,,3,,3,,,,2,,
,,1,,8,,7,,6,,5,,4,,3,,
2qq5[1:1],,,,2,,,,4,,4,,,,6,,
,,8,,1,,2,,3,,4,,5,,6,,
2pp5[1:1],,,,2,,,,6,,6,,,,7,,
,,8,,1,,2,,3,,4,,5,,6,,
7pp4[1:1],,,,7,,,,5,,5,,,,3,,
,,1,,8,,7,,6,,5,,4,,36,,
,,,,2b^5[4:1],,,,,,7b^2[4:1],,,,,,
4b^7[4:1],,,,,,1b^4[4:1],,,,,,6b^1[4:1],,,,
,,3bqq7[8:15],,,,,,,,,,8,,,,
,,7,,,,,,6,,,,,,5<2[8:11],,
,,,,,,,,,,,,,,,,
4,,,,,,,,3,,,,,,,,
2,,,,1,,2,,,,1,,,,2,,
,,,,6,,,,7,,,,8,,,,
3,,4,,,,2h[8:7],,,,,,8h[2:1],,,,
,,,,,,,,4,,3,,5,,4,,
6,,6,,,,2,,1,,2,,,,7h[8:3]`5h[8:3],,
,,,,,,,,2,,3,,,,7,,
8,,7,,4,,5,,4,,6,,1h[4:3],,8h[8:5],,
,,,,,,,,,,,,6,,5,,
7,,,,8,,7,,,,8,,,,7,,
,,,,3,,,,2,,,,1,,,,
6,,5,,,,7h[8:7],,,,,,1h[2:1],,,,
,,,,,,,,,,,,34,,,,
{12}
6,,7,,8,,2,,3,,4,,
7,,8,,1,,3,,4,,5,,
{16}
78,,,,2,3,4,,7,,1,,8,,2,,
3h[2:1]`6h[2:1],,,,,,,,,,,,2,,,,
1q4[4:3],,,,5,,,,6,,,,7,,7h[8:5],,
,,,,,,3,2,1,,,,7p2[2:1],,,,
1h[2:1],,,,,,,,,,8,,7,,6,,
15,,,,37,,,,
{12}
2,1,2,1,,,
{16}
8,,1,,2,,3,,4,,5,,6,,7^4[4:1],,
,,4^1[4:1],,,,1^6[4:1],,,,6^3[4:1],,,,3,,
,,2,,8,,1,,,,7,,5,,6,,
4qq4[2:1],,,,,,,,6,,,,7,,,,
8p5[4:3],,,,4,,,,3,,,,2,,2h[2:1],,
,,,,,,7,,2,,8,,2>7[2:1],,1,,
2,,,,,,,,,,8pp5[8:5],,,,8,,
,,,,,,,,4,,,,3,,,,
2,,,,17,,,,3,,3,,,,7,,
,,28,,,,6,,6,,,,37,,,,
65,,56,,,,24,,,,17,,,,8/4>5[8:3],,
,,,,,,,,
{24}
4,3,2,1,8,7,6b,,,,,,
{16}
3-1[4:1],,,,1,,,,4,,4-7[4:1],,,,1,,
,,3,,3-1[4:1],,,,1,,,,4,,4-6[4:1],,
,,1,,1-3[4:1],,,,1,,8qq4[4:3],,,,8,,
,,2,,2,,,,1,,,,2,,,,
3-8[4:1],,,,1,,,,4,,4-6[4:1],,,,8,,
,,3,,3-8[4:1],,,,1,,,,4,,4-6[4:1],,
,,1,,1,,1b^4[4:1],,,,1b^6[4:1],,,,1bpp5[4:3],,
,,,,,,,,5,,,,6,,,,
7p3[4:1],,,,2,,2,,,,1,,,,1-5[4:1],,
,,5,,,,7,,8,,1,,2,,3,,
5,,5^2[4:1],,,,2^7[4:1],,,,7^4[4:1],,,,4,,
,,7,,6,,5,,4,,3,,2,,1,,
8<4[2:1]/4,,,,,,,,3,,2,,1,,8-2[4:1],,
,,8-6[4:1],,,,8-4[4:1],,,,8,,,,6,,
6-8[4:1],,,,8,,,,5,,5-2[4:1],,,,8,,
,,6,,6-8[4:1],,,,8,,,,5,,5-3[4:1],,
,,8,,8-6[4:1],,,,8,,1pp5[4:3],,,,1,,
,,7,,7,,,,8,,,,7,,,,
6-1[4:1],,,,8,,,,5,,5-3[4:1],,,,1,,
,,6,,6-1[4:1],,,,8,,,,5,,5-3[4:1],,
,,8,,8,,8b^5[4:1],,,,8b^3[4:1],,,,8bqq4[4:3],,
,,,,,,,,3,,,,2,,,,
2q6[4:1],,,,7,,7,,,,8,,,,8-4[4:1],,
,,4,,,,2,,1,,8,,7,,6,,
4,,4^7[4:1],,,,7^2[4:1],,,,2^5[4:1],,,,5,,
,,2,,3,,4,,5,,6,,7,,84,,
,,,,6<2[4:1],,,,2>6[4:1],,,,6,,,,
1bq6[4:1],,,,,,5bq2[4:1],,,,,,4b>5[1:4],,,,
,,,,,,,,,,,,,,,,
,,,,,,,,,,,,,,,,
,,,,,,,,,,,,,,,,
,,,,,,,,,,,,3,,2,,
1h[4:5],,,,,,,,,,,,,,,,
,,,,6,,5,,4,,3,,2,,1,,
5,,6,,7,,8,,1,,2,,3,,4,,
5h[4:1]/7h[4:1],,,,,,2h[4:1]/4h[4:1],,,,,,1-5[4:3]/8h[1:1],,,,
,,,,,,,,,,,,,,,,
1h[4:3]/7-2[2:1],,,,,,,,,,,,,,,,
8h[4:3]/3-6[2:1],,,,,,,,,,,,,,,,
1h[4:3]/5-8[2:1],,,,,,,,,,,,,,,,
3>5[4:3],,,,,,5,,,,,,,,,,
,,8-4[4:1],,,,8,,,,,,2q5[1:2]*-7[1:1],,,,
,,,,,,,,,,,,,,,,
,,,,,,,,,,,,,,,,
6-8[4:1],,,,8,,,,5,,5-2[4:1],,,,8,,
,,6,,6-2[4:1],,,,2b,,,,,,,,
,,8,,8-6[4:1],,,,8,,1pp5[4:3],,,,1,,
,,7,,7,,,,8,,,,7,,,,
6-1[4:1],,,,8,,,,5,,5-3[4:1],,,,1,,
,,6,,6-1[4:1],,,,8,,,,5,,5-3[4:1],,
,,8,,8,,8b^5[4:1],,,,8b^3[4:1],,,,8bqq4[4:3],,
,,,,,,,,4,,,,3,,,,
2q6[4:1],,,,7,,7,,,,8,,,,8-4[4:1],,
,,4,,,,2,,1,,8,,7,,6,,
4,,4^7[4:1],,,,7^2[4:1],,,,2^5[4:1],,,,5,,
,,2,,3,,4,,5,,6,,7,,8,,
1>5[2:1]/5,,,,,,,,6,,7,,8,,1-7[4:1],,
,,1-3[4:1],,,,1-5[4:1],,,,1,,,,3,,
3-1[4:1],,,,1,,,,4,,4-7[4:1],,,,1,,
,,3,,3-1[4:1],,,,1,,,,4,,4-6[4:1],,
,,1,,1-3[4:1],,,,1,,8qq4[4:3],,,,8,,
,,2,,2,,,,1,,,,2,,,,
3-8[4:1],,,,1,,,,4,,4-6[4:1],,,,8,,
,,3,,3-8[4:1],,,,1,,,,4,,4-6[4:1],,
,,1,,1,,1b^4[4:1],,,,1b^6[4:1],,,,1bpp5[4:3],,
,,,,,,,,6,,,,7,,,,
7p3[4:1],,,,2,,2,,,,1,,,,1-5[4:1],,
,,5,,,,7,,8,,1,,2,,3,,
5,,5^2[4:1],,,,2^7[4:1],,,,7^4[4:1],,,,4,,
,,7,,6,,5,,4,,3,,2,,15,,
,,,,3>7[4:1],,,,7<3[4:1],,,,3,,,,
8bp3[4:1],,,,,,4bp7[4:1],,,,,,5b,,,,
,,6,,7,,8,,1,,2,,3,,4-7[4:1],,
,,1,,1,,,,3,,,,5,,5-2[4:1],,
,,8,,8,,,,7,,6,,5,,4,,
,,2,,2-6[4:1],,,,8,,8-4[4:1],,,,,,
,,3,,2,,1,,8,,7,,6,,5-1[4:1],,
,,8,,7,,6,,,,28,,,,34,,
,,,,7,6,5,,2,,8,,1,,7,,
{12}
5b-8[4:1],,4b,,3b,,2b-5[4:1],,1b,,8b,,
{16}
7h[2:1],,,,,,,,5h[8:3],,,,,,4h[8:3],,
,,2,,2h[8:3],,,,8,7,6,5,1,2,3,4,
6h[2:1],,,,,,,,
{12}
2,3,4,7,6,5,1,2,3,8,7,6,
{16}
1h[2:1],,,,,,,,
6,5,4,3,2,1,7,6,5,4,3,2,8,,8b^5[4:1],,
,,8b^3[4:1],,,,8b-4[4:1],,,,8b,,,,,,
3^1[4:1],,,,7,,6,,5,,4^7[4:1],,,,1,,
,,3,,3^1[4:1],,,,1,,,,4,,4^7[4:1],,
,,1,,1q6[4:1],,,,1,,,,8,,8<3[8:3],,
,,2,,2,,,,1,8,7,6,5,4,3,2,
6^8[4:1],,,,2,,3,,4,,5^2[4:1],,,,1,,
,,6,,6^8[4:1],,,,8,,,,5,,5^2[4:1],,
,,8,,8,,8b^5[4:1],,,,8b^3[4:1],,,,8b-4[4:1],,
,,,,,,,,2,1,8,7,6,5,4,3,
2V46[4:1],,,,7,,7,,,,8,,,,8-4[4:1],,
,,4,,,,2,,1,,8,,7,,6,,
4,,3b,,7,,6b,,1,,2b,,5,,4b-8[4:1],,
,,7,,6,,5,,4,,3,,2,,15,,
,,,,8<4[4:1],,,,4>8[4:1],,,,8,,,,
5bq2[4:1],,,,,,1bq6[4:1],,,,,,3bV17[1:2]*V57[1:2],,,,
,,,,,,,,,,,,,,,,
,,,,,,,,,,,,,,,,
,,,,,,,,,,,,,,,,
,,,,,,,,,,,,,,,,
,,,,,,,,,,,,,,,,
,,,,,,,,,,,,,,,,
,,,,,,,,,,,,,,,,
E
