&title=0.0000034
&artist=むさぬりゆ
&first=-1.98
&des=3I4U
&lv_5=14+
&inote_5=(239){1},,Ch[8:27],,{2},,,
{8},,5,4,6,3h[4:1],,6,4,5,3,3h[4:1],,6,5,7,4,4h[4:1],,6,5,7,5,6,4,5,4,5,3,3h[4:1],,
4,2,4,3,5,3,5,4,5,5,4h[4:1],,6,5,6,4,5,4,4,5,4,6,6h[4:1],,3,4,3,3h[4:1],,
6,5,6,7,7h[4:1],,3,4,3,2,2h[4:1],,5,4,3,6,3,3h[4:1],,4,5,6,5,4,3,4,5,6,5,4h[4:1],,
6,1,,7,,8z4[8:1],,
{16}1b/8b,Cf/E1/E5,{8},,,
2-5[8:1]/1-6[8:1],,21,,,7p3[8:1],,,2q6[8:1],,,8q5[8:1],,,1p4[8:1],,,E5,
8z4[8:1],,{16}1b/8b,Cf/E1/B1/B5/E5,{8},,,
7-4[8:1]/8-3[8:1],,78,,,2-6[8:1],,,7-3[8:1],,,1v4[8:1],,,8v5[8:1]*>3[8:1],,,B5/D3,,,
18,,68,68,,1x/3x,{12}E1,E8,E7,E2,C,E6,E3,E4,E5,8,1,2,8,7,6,{8}25,,
{16}1,8,7,6,2,1,8,7,3,2,1,8,{8}3xv5[8:1]/7xv1[8:1],,,,
3x/7x-3[8:1],,1-5[8:1]/7,,6-2[8:1]/1,,6/4h[4:1],,
{16}1x,8,7,6,5,4,3,2,15,4,3,2,1,8,7,6,{12}15,8,7,6,5,4,
{2}3-6-1-4[1:2],,,7h[8:6],,,8>2v3<5[4:5],,,,
{4},{2}1>4v1[4:3]/5v8<5[4:3],,,1>4v1[4:3]/5v8<5[4:3],,,
{4}1>4v1[4:3]/5v8<5[4:3],E5,,,{2},36,{4},C,,,B6/Ch[4:3],,,
{8}6x,6,6,6,5,5,5,5,6,{16}6,5,6,5,{8}6,
{8}4,4,4,4,5,5,5,5,4,{16}4,5,4,5,{8}4,
{8}6,6,5,5,6,6,5,{16}5,6,{8}5,5,6,6,
{8}3,3,4,4,3,3,4,{16}4,3,{8}4,4,3,3,
{8}5,4,5,3,5,2,4,2,3,2,1,2,1,8,1,7,1,6,8,6,7,5,6,5,
56,56,45,45,34,34,45,45,36,36,27,27,{16}1,8,1,8,1,8,1,8,1-5[8:1],8,1,8,
{4}1,E7,E3,
{4}7,{4}3h[6:1],6h[4:1],3,7,4h[6:1],6,1h[6:1],7,3h[4:1],5,5h[6:1],
{4}2,{4}6h[6:1],3h[4:1],6,2,5h[6:1],3,8h[6:1],2,6h[4:1],4,4h[6:1],
{4}8,{4}4h[6:1],7h[4:1],2,5,3h[6:1],8,2h[6:1],6,1h[4:1],7,7h[6:1],
{4}1,{4}5h[6:1],2h[4:1],7,4,6h[6:1],1,7h[6:1],3,8h[4:1],2,1/8<6[8:1],
8-5[8:1]/2,83,8x>2[8:1],8-3[8:1]/6,8-4[8:1]/6,5/8<6[8:1],8-5[8:1]/2,38,
1x>3[8:1],1-4[8:1]/6,1-5[8:1]/7,6/1<7[8:1],1-6[8:1]/3,13,
4x<6[8:1],4-7[8:1]/1,4-8[8:1]/2,1/4>2[8:1],4-1[8:1]/7x,64,
5-7[8:1]*-8[8:1],5-3[8:1]*-2[8:1],5w1[8:1],{1}5qq5<5[4:9]b*pp5>5[4:9]b,,,
{4}C,E3,E4,E5,E6,E7,C,
{12}1,7,4,8,3,6,2,5,4,7,1,5,8,6,1,7,3,5,2,1,4,6,8,5,2,8,3,6,1,8,3,6,1,8,2,5,
{16}3,6,3,6,2,7,2,7,1,8,1,8,
{32}1bx/7bx,2x/6x,3x/5x,4x,{4},{32}1b/7b,26,35,4,{4},{32}8b/2b,73,64,5,{4},{32}8b/2b,73,64,5,
{4},{32}1b/8b,27,36,45,{4},C,
7,{16}1>4[8:1],,5h[8:1],,1,6,7,58,6-2[8:1],7,8,1,{2}26,{8}6,
2,{16}8<5[8:1],,4h[8:1],,8,3,2,41,3-7[8:1],2,1,8,{2}73,
{16}5x/6x,7,8,1,2,3,4,5,6,7,8,1,2,3,48,{4},{16}5x/6x,4,3,2,1,8,7,6,5,4,3,2,1,8,7,6,5,4,3,2,1,8,7,6,5,4,3,{8}26,
7,{16}1>4[8:1],,5h[8:1],,1,6,7,58,6V41[4:1],7,8,1,{2}26,{8},6,
2,{16}8<5[8:1],,4h[8:1],,8,3,2,41,3V58[4:1],2,1,8,{2}73,
{8}16,7-4[8:1],,27,1-5[8:1],,16,7,8,1,2-5[8:1],,27,8-4[8:1],,38,2-6[8:1],,25,4-7[8:1],,14,8qq8[4:1]b*pp8[4:1]b,,
{1}8b<8s4[4:7]*>8z4[16:27],,
{16},,5x,6x,7x,8x,{1}1bxv3v5v7v1[8:19]*>1[16:37],,{2},{4},
{12}2x,3,4,5,6,7,8,1,2,{4}3>8-6>4-1<7-5>3-1<6-3[8:21],3,,,,{1}7h[2:3],{4},,,
{12}7x,6,5,4,3,2,1,8,7,
{4}62,35,35,35,26,26,26,17,17,
{16}8,7,6,5,84,1,2,3,84,7,6,5,84,1,2,3,
{4}48,48,{16}48,3,2,1,38,2,1,8,27,1,8,7,1-5[8:1]b/6,8,7,6,{1}1b/5/Cf/B1,{4},{8},
{8}1-5[8:1],7,1,{16}6,7,8,1,{4}2v7[8:1]/6v3[8:1],6xv5[8:1]/2xv1[8:1],,{8},
{8}8x-4[8:1],2,8,{16}3,2,1,8,{4}7v2[8:1]/3v6[8:1],3xv4[8:1]/7xv8[8:1],,{8},
{8}6,1-5[8:1],,15,6qq3[2:1],,6,7x,8,1,2,,1,8-4[8:1],,84,3pp6[2:1],,3,2x,1,8,7,,
{8}1v6[8:1],7,1,{16}8,1x,2,3,{16}4,53,62,71,8V24[6:1],7,6,5,{8}48,,,
{8}8v3[8:1],2,8,{16}1,8x,7,6,{16}5,46,37,28,1V75[6:1],2,3,4,{8}51,,,
{8}7,4-8[8:1],,46,7pp2[2:1],,7,6x,5,4,3,,27,
{32}2b/7b,36,45,,{8},27,{32}2b/7b,36,45,,{8},18,{32}1b/8b,27,36,4qq5[4:1]b/5pp4[4:1]b,{8},,,,,
{8}6>3[8:1],2,6,1,,2,1<6[8:1],2,1,3,,2,4v7[8:1],2,4,1,,1,7-3[8:1],1,7,2,,
1-5[8:1],8-4[8:1],1,8,2,,7-3[8:1],8-4[8:1],7,8,6,,2-6[8:1],1-5[8:1],2,1,3,,
8-4[8:1],1-5[8:1],8,1,7,,6,
{16}3,4,3,,5,4,5,,2,4,2,,6,4,6,,2,4,2,,5,3,5,,4,6,4,,7,5,7,,
3,5,4,6,3,5,4,5,3,6,4,5,3,6,4,5,2,7,1,8,2,7,1,7,1,8,2,7,1,8,2,7,
2x,3x,7x,6x,2,3,7,6,3,4,6,5,3,4,6,5,
1,2,38,7,61,2,38,7,62,3,47,6,25,3,47,6,
{32}15,2,3,4,5,6,7,8,1,2,3,4,5,6,7,8,16,5,4,3,2,1,8,7,6,5,4,3,
{32}2xbqq7>2[8:11]b/6xbqq3<6[8:11]b,B2/B6,Cf,B7/B3,{8},{4},{2},{1},,{8},{32},,{4}E6,,,E5,,
{32},,,,,,{16}E4,B3,{8},{4},{2},,{8}C,,,,,,{32},,E4,,,,,,,,,,,,,E5,,,,,,,,,E6,,,B6,,,,,{4},,,{32},,,3<6[1:1],{8},
{2},,,,,,{4},{1}D5,,,,E
