&title=SA.YO.NA.RA. SUPER STAR
&artist=SUPER STAR -満- MITSURU
&first=0
&des=长松P、夜羽☆Polaris
&lv_5=12
&lv_6=13
&inote_5=(170){1},{8}
2pp5[8:6],,,,,,,,
8qq5[8:6],,,,,,,,
2<4[8:8],,,,,,,,
,,,,6,,7,,
8qq1[8:4],,,4,,,3,,
1/2pp7[8:6],,8,,7,,6,,
5h[8:8],,,,,,,,
4p2[8:4]*q6[8:4],,,,,,,,
2>5[8:4]/6<1[8:4],,,,,,,,
1p5[8:4]/5p1[8:4],,,,,,,,
1q3[8:8]/5q7[8:8],,,,,,,,
,,,,6,,7,,
8h[8:2]/4h[8:2],,,3h[8:2]/7h[8:2],,,26,,
13,,45,,57,,81,,
1-5[8:2]/3>4[8:8],,,,,,,,
,,,,{16}8,1,2,3,4,5,6,7,{4}
4>1[8:1]/8<5[8:1],,1>4[8:1]/5<8[8:1],,
4>1[8:1]/8<5[8:1],,1>4[8:1]/5<8[8:1],,
1>4[8:1]*<6[8:1],1,8>3[8:1]*<5[8:1],8qq4[8:4],
,,{8}1,1,1,1,{4}
5<8[8:1]/1>4[8:1],,8<5[8:1]/4>1[8:1],,
1>4[8:1]/5,1<6[8:1],1-5[8:1],1>8[8:3],
{8}1,,,1-5[8:1],,1<2[8:3],,1b,
,,,,{16}1,8,7,6,5,4,3,2,{4}
5<8[8:1]/1>4[8:1],,8<5[8:1]/4>1[8:1],,
5<8[8:1]/1>4[8:1],,8<5[8:1]/4>1[8:1],,
8<5[8:1]*>3[8:1],8,1<6[8:1]*>4[8:1],1pp5[8:4],
,,{8}8,8,8,8,{4}
4-1[8:1]/8-5[8:1],,8-3[8:1]/4-7[8:1],,
8<5[8:1]/4,8>3[8:1],8-4[8:1],8,
{8}32,,81,54,,7p6[8:6]/6>7[8:6],,76,
,,,,,,,,
{4}1b-5[8:34],,,,,,,,
,,,,,,,,
,,,,,,,,
{8}8<4[8:10],,,,,,,,
,,,,3,,,,
2-4[8:3],,,,8,,,,
1>5[8:10],,,,,,,,
,,,,6,,,,
7-5[8:3],,,,1,,,,
8<4[8:10],,,,,,,,
,,,,2,,,,
3-1[8:3],,,,5,,,,
1h[8:4],,,,,,5,,
6,,7,,8bqq8[8:18]*>8[16:35],,,,
,,,,,,,,
,,,,,,,,
,,,,,,,,
3h[8:2]/7h[8:2],,{16},4,6,5,{8}7,57,46,35,
{16}2b-7[16:1],,,6b-3[16:1],,,{8}1bs5[8:2],,,,,
56,4,35,2,3-8[8:1]/4,,23,,
5/6-1[8:1],,67,,8-3[8:1]*-5[8:1],,8b<1[8:6],,
,,,,,,8,,
{16}7b/8b,,,4b/5b,,,{8}1bz5[16:3]/2bs6[16:3],,,,,
1-4[8:1],,7-4[8:1],,2-5[8:1],,8-5[8:1],,
3-8[8:1],,5-2[8:1],,4-7[8:1],,6>7[8:12],,
,,,,,,,,
,,,,,,,,
{16}
3,4,3,,6,5,6,,
3,4,3,,6,5,6,,
2,4,2,,7,5,7,,
2,4,2,,7,5,7,,
2,4,3,,7,5,6,,
2,4,3,,7,5,6,,
2,4,2,,2,8,2,,
7,5,7,,7,1,7,,
1,8,1,8,2,7,2,7,
3,6,3,6,4,5,4,5,
3,4,3,4,2,5,2,5,
1,6,1,6,8,7,8,7,
4,5,3,6,2,7,1,8,
3,4,2,5,1,6,8,7,
5,6,4,7,3,8,2,1,
3,4,5,6,57,68,17,28,
{8}
3h[1:2]/1h[1:2],,,,,,,,
,,,,,,,,
,,,,,,,,
,,,,,,,,
,2qq5[42.5#8:1]*qq5[42.5#8:1],,,,,,,
,,,,,,,,
{16}2,4,3,7,5,6,1,3,2,8,6,7,{32}1,2,3,4,5,6,7,8,{8}
,,,,,,,,
,,,,,,,,,E
&inote_6=(170){1},{8}
1/8qq5[2:1],2,3,4,,1,2,3,
5/4qq1[2:1],6,7,8,,5,6,7,
1/8p5[2:1],2,3,4,,1,2,3,
5/4p1[2:1],5,6,6,7h[8:1],,8h[8:1],,
2qq1[8:3]/7,,,1>6[8:3],,,6<1[4:1],,
1-5[4:1],,5qq1[4:3],,8h[8:1],,7h[8:1],,
6h[8:2],,,5h[8:5],,,,,
1h[2:1],,,,{32},8,7,6,5,4,3,2,1,8,7,6,5,4,3,2,{8}
1b-5[8:1],7,1,7,2-5[8:1],8,2,8,
8-4[8:1],2,8,2,7-4[8:1],1,7,1,
1-5[8:1],7,1-3[8:1],6,1-5[8:1],7,1,8,
8-4[8:1],2,8-6[8:1],3,8-4[8:1],2,8,,{16}
1b,8,1,8,1,8,1,8,1,8,1,8,1,8,1,8,
2b,8,1,8,1,8,1,8,1,8,1,8,1,8,1,8,
3b,8,1,8,1,8,1,8,4b,8,1,8,1,8,1,8,
{32}2b,3,4,5,6,7,8,1,2,3,4,5,6,7,8,1,{32}2/7b,6,5,4,3,2,1,8,7,6,5,4,3,2,1,8,{16}
47,,6,5,6,,25,,3,4,3,,82,,73,,
82,,6,5,6,,17,,3,4,3,,17,,26,,
7,8,6,1,5,2,4,3,1,2,8,3,7,4,6,5,
8,,7v5[8:1]/1v3[8:1],,,,7b/1b,,,,,,{32}5,6,7,8,1,2,3,4,{16}
52,,3,4,3,,47,,6,5,6,,5v2[8:1]/3,,6/2,,{4}
5b/3b<6[8:1],3b/7bV58[16:3],7b/1bw5[8:1],1b,{16}
2,1,2,3,2,4,2,5,2,6,2,7,2,8,2,,
2b/1b,,2b-6[8:1]/1b,,,,2b/1b-5[8:1],,,,2b/1b,,{32}3,2,1,8,7,6,5,4,{16}
83,,2,1,2,,61,,7,8,7,,46,,37,,
46,,2,1,2,,53,,7,8,7,,53,,62,,
3,4,2,5,1,6,8,7,5,6,4,7,3,8,2,1,
3,,2v8[8:1]/4v6[8:1],,,,2b/4b,,,,,,{32}1,2,3,4,5,6,7,8,{16}
16,,7,8,7,,26,,38,,2,1,2,,37,,{4}
1q5[8:1]/5q1[8:1],1<6[8:1]/5>2[8:1],1v4[8:1]/5v8[8:1],15,{16}
8b,4,7,3,6,2,5,1,5b,1,6,2,7,3,8,4,
{8}1b,1b-4[8:1],,1b/8b-5[8:1],,8b/7b>2[8:1],,3b,
{4}
3b<2[4:11],,,,
8h[4:3],,,,
6h[4:3],,,,
4h[4:2],,8,,
8>7[8:10]*<1[8:10],,,,
,,,,
7-2[4:1],,8-6[6:1],,1q5[4:1],,
8V24[4:1],,7-3[4:1],,6-4[6:1],,
7-2[4:1],,1q5[4:1],,6,7,
7-1[6:1],,6-2[4:1],2>5[4:1],,,
8-2[6:1],,7-3[4:1],,6-4[6:1],,
7-5[6:1],,8-4[4:1],,2>5[4:1],,
8-6[6:1],,1-5[4:1],5-3[6:1],6,7,
8b-5[4:11]*-5[4:11],,,,,,
,,,,,,,,{16}
5h[4:1]/1,,,,2,5,4,7,
2-5[8:1],,5-1[8:1],,,,,,{32}
8,7,6,5,,,8<4[8:1],7<3[8:1],6>2[8:1],5>1[8:1],,,8,,,,{16}
,,8,,8,,2,1,
4,5,8,7,1,6,8,7,
4,5,2,1,3,8,1,8,
1h[8:3],,,,,,{32}5,6,7,8,
1,2,3,4,5,6,7,8,1,2,3,4,5,6,7,8,{16}
1/5h[8:2],,,,1,5,7,3,
5V36[8:1],,3,,,,,,{32}
1,2,3,4,,,2>6[8:1],3<7[8:1],4<8[8:1],5<1[8:1],,,2b,,,,{16}
,,,,,,18,,
27,,2,4,,45,,5h[16:5]/7,
,,4,,4,,18,18,
27,,5,46,,1h[16:5],,8h[16:3],
,,,,1/8,,2/7,,
1b,8,1,8,2,7,2,7,3,6,3,6,4,5,4,5,
1,2,8,7,2,3,7,6,2,3,7,6,3,4,6,5,
1,5,3,8,4,6,2,4,3,7,5,6,3,4,2,6,
5,7,3,5,1,8,1,6,3,7,2,6,4,6,1,8,
2b,5,3,4,2,5,3,4,2,5,3,4,2,5,3,4,
7b,5,8,4,7,5,8,4,7,5,8,4,7,5,8,4,
1b,5,1,5,2,6,2,6,3,7,3,7,4,8,4,8,
4,8,4,8,3,7,3,7,2,6,2,6,1,5,1,5,
8b,7,1,6,2,5,3,4,1,8,2,7,3,6,4,5,
2,1,3,8,4,7,5,6,2,1,4,5,{24}8w4[8:1],7,8,7,8,7,
{1}8b<1[2:3],,{32}18,27,36,45,,,,{8},,,,,,,,,,,,,,,
(42.25)
{4}1>1[16:2]*>1[16:2],
(170){8}7v1[8:2],,,,,,,
(170)
{32}7h[8:1]/1b,2,3,4,,,2h[8:1]/8b,7,6,5,,,
{32}8h[8:1]/2b,3,4,5,,,1h[8:1]/7b,6,5,4,,,
{32}7h[8:1]/1b>1[4:1]*>1[4:1],2>6[8:1],3<7[8:1],4<8[8:1],5<1[8:1],,,,1b<1[2:3]*p1[2:3],,,,
{1},,,,E
