&title=Dance with me
&artist=SOMON
&first=1.97
&des=Hanario
&lv_5=13+
&inote_5=(130)
{8}3h[1:1],,,,,,,,
{8}4h[1:1],,,,,,,,
{8}5h[1:1],,,,,,,,
{8}6h[2:1],,,,,{16}3b/4b,,,5b/7b,,,
{8}8b/1h[2:1],,5,,7,{16}7h[16:3],,,6h[16:3],,,
{8}5h[4:1],,4,,{24},,4,{24},,5,,,4,5,,,
{8}4h[4:1],,5,,6,{16}6h[16:3],,,7h[16:3],,,
{8}8h[2:1],,1,,,{16}1b/2b,,,5b/6b,,,
{8}4bqq5[8:3]/3b,,5,,6pp5[8:3],,4,,
{8}3qq3[8:2],,5,,6,4h[128:1]/7h[128:1],7h[128:1]/4h[128:1],,
{8}5pp4[8:3],,4,,3qq4[8:3],,5,,
{8}6pp6[8:2],,4,,{24}3,,,{24}5,,5,3,,,,,,
{8}8/4^1[8:1],7,6,5,4/1^4[8:1],5,6,7,
{8}4/8^5[8:1],3,2,1,8/5^8[8:1],1,2,3,
{24}3h[12:1],,4,2,,,6h[12:1],,5,7,,,3h[12:1],,4,1,,,6h[12:1],,5,8,,,
{8}1,,1,,{24}1,,1,{24}8,,8,7b/2b,,,,,,
{24}63,,,,,,7,,7,8,,,2-7[8:1],,2,1,,,6,,,,,,
{24}2-7[8:1],,2,1,,,6,,,,,,2-7[8:1],,2,1,,,6,,,,,,
{24}27,,,,,,3,,3,4,,,6-3[8:1],,6,5,,,2,,,,,,
{24}6-3[8:1],,6,5,,,2,,,,,,6-3[8:1],,6,5,,,2,,,,,,
{24}3,,3,4,,2h[24:4],,,,1,,,8^5[8:1],,,7,,,4,3,2,1,,,
{24}1,,1,8,,2h[24:7],,,,3,,,4-7[8:1],,,4-1[8:1],,,,,,,,,
{24}6,,6,5,,7h[24:4],,,,8,,,1^4[8:1],,,2,,,5,6,7,8,,,
{24}8,,8,1,,7h[24:4],,,,5,,,2,,2,1,,3,4,,1,8,,4,
{24}5,,6,4,,5h[24:4],,,,3,,,1p4[8:1],,,5,,,5,6,7,8,,,
{24}8,,8,1,,7h[24:7],,,,6,,,5v2[8:1],,,5v8[8:1],,,,,,,,,
{24}3,,3,5,,4h[24:4],,,,6,,,8q5[8:1],,,4,,,4,3,2,1,,,
{24}1,,1,8,,2h[24:4],,,,4,,,7,,7,8,,6,5,,8,1,,5,
{8}4,4^1[8:1]/3,,5/4^7[8:1],,3/4-1[8:1],,5/4-7[8:1],
{8},4v1[8:1]/3,,5/4v7[8:1],,4/3,,52,
{24}2,,2,1,,3,4,,1,8,,4,5,,8,7,,5,6,,1,8,,4,
{8}5w1[8:1],,,,{24}2,,2,4,,4,6,,6,8,,,
{8}8bqq8[2:1],,,,,,,{24}1h[24:2],,,
{24}4h[24:3],,,2h[12:1],,,5h[24:3],,,3h[12:1],,,6h[8:1],,,4h[12:1],,,7h[24:2],,,5h[12:1],,,
{24}8^2[8:1]*^6[8:1],,,,,,,,,,,,3,,,5,,5h[24:22],,,4,4<3[2:1],,,
{8},,,,,,,4,
{8}4bqq5[2:1],,,,,,,{24}8h[24:2],,,
{24}5h[24:3],,,7h[12:1],,,4h[24:3],,,6h[12:1],,,3h[8:1],,,5h[12:1],,,2h[24:2],,,4h[12:1],,,
{24}1^7[8:1]*^3[8:1],,,,,,,,,,,,6,,,4,,4h[24:22],,,5,5q6[8:3],,,
{16},,,,,,,,,,7b,,,2b/4b,,,
{24}6,,6,4,,,7,,7,4,,,8z4[8:1],,8,4,,,,,,,,,
{24}3,,3,5,,,2,,2,5,,,1s5[8:1],,1,5,,,,,,,,,
{24}3,,3,4,,,6,,6,5,,,4-6[12:1]*-2[12:1],,4,5,,,,,,,,,
{24}2,,2,1,,,7,,7,8,,,2,,7,3,,6,2,,7,3,,,
{8}7-5[8:1]*-3[8:1],,7-1[8:1],,7-5[8:1]/4,,37,{24}3h[12:1],,4,
{24}2,,,6h[12:1],,5,7,,,3h[12:1],,4,1,,,6h[12:1],,5,8,,4,1,,5,
{24}8V64[8:1]*V24[8:1],,,,,,8,,,,,,3,,,45,,45,,,6,5,,,
{8}7/4-7[8:1]*-2[8:1],,4-8[8:1],,47,{24}6,,6,5,,5,4,,4,
{8}3-1[8:1]*-7[8:1],,3-5[8:1],,3-1[8:1]/8,,63,{24}6h[12:1],,5,
{24}7,,,3h[12:1],,4,2,,,6h[12:1],,5,8,,,3h[12:1],,4,1,,5,8,,4,
{24}1V35[8:1]*V75[8:1],,,,,,1,,,,,,6,,,54,,54,,,3,4,,,
{8}2/5<5[2:1]*>5[2:1],,,,,{24},,,,,,2,,,
{8}2-7[8:1]*-5[8:1],,2-6[8:1],,2-4[12:1]/8,,62,{24}6h[12:1],,4,
{24}8,,,2h[12:1],,4,8,,,6h[12:1],,4,8,,,2h[12:1],,4,8,,8,1,,1,
{24}2-5[8:1]*-7[8:1],,,,,,2,,,,,,6,,,54,,54,,,3,4,,,
{8}2/5-1[8:1]*-2[8:1],,5-7[12:1],,53,{24}4,,4,5,,5,6,,6,
{8}7-5[8:1],4,1/7-3[8:1],1,4/7-5[8:1],4,1/7-3[8:1],1,
{8}2V46[8:1]/7,1,8/2-8[12:1],8,5/2V46[8:1],5,8/2,8,
{24}7,,7,6,,6,5,,5,4,,4,3,,3,2,,2,1,,1,8,,8,
{24}7-3[8:1],,,,,,,,,,,,4,,4,5,,5,2b/7b,,,,,,
{24}45,,,,,,6,,6,5,,,3-6[8:1],,3,6-3[8:1],,,7,,,,,,
{24}7-2[8:1],,7,2-7[8:1],,,3,,,,,,3-6[8:1],,3,6,,,7,,,,,,
{24}81,,,,,,2,,2,1,,,7-2[8:1],,7,2-7[8:1],,,3,,,,,,
{24}3-6[8:1],,3,6-3[8:1],,,7,,,,,,7-2[8:1],,7,2,,,3w7[8:1],,,,,,
