&title=NEO
&artist=じん
&first=0.02
&des= 舞踏押しの達人
&des_5= 舞踏押しの達人
&lv_5=13+
&inote_5=(190){4},,,,,,,,,,,,,,,,,,
{32},,,,,,{128},
{8}3/5,
,,1,,,{4}7-2[2:1],
{8},,,,,,,,7/1,
,,5,,,{4}3-6[2:1],
{8},,,,,,,,8/2,
,,6,{4},{256}8-3[2:1],4-7[2:1],{1},{16},,,{64},,,{128},{8}4/6,
,,1,,,{4}3h[2:1]/7h[8:3],
{8},,,8,{16}2-6[8:1],1,2,1,{4}2,
{8}7-4[8:1],5,{4}7,3-6[8:1],{8}8,7>4[8:3],
,2h[2:1],,,,,,,2-5[8:1],
6-4[8:1],2,6,,1,{4}2<5[8:3],
{8},7h[2:1],,,,,3,5/4-1[8:1],
,6,{4}8-3[8:1],2V46[4:1],{8}1,7-3[8:1]*-4[8:1],
,,,,,2,1-6[8:1],8,
{4}1/6V82[4:1],{8}4,4pp4[16:7]*qq4[16:7],,,,,,,{4}5-7[8:1]*-3[8:1],
{16},,,,5pp7[16:3],4-1[8:1],5,4,
{8}5,,,6,3,3-5[8:1],,7-5[8:1],
,2-5[8:1],,8,,6,4,3,
8-5[8:1],1,8,{16}3,4,{8}3,5v6[32:5],{4}4v3[32:5],
{8},,,2v4[32:5]/7v5[32:5],,,,,3h[8:3],
{24}8qq8[8:3],7,6,{4}5,{8}3,4-2[8:1],4,4-6[8:1],
,4-1[8:1],,4-7[8:1],,4,,1,
{4}2/8V26[4:1],{8}4,3,{4}1V73[4:1],{8}5,6,
{4}8V62[4:1],{8}1,3,{4}5>8[4:1],{8}8V64[4:1],6,
{4}4V28[4:1],8<4[4:1],4>8[4:1],8pp8[8:3],
,,7V51[4:1],1,
{8}2-4[32:3],2,7-5[32:3],7,2-5[8:1],2,7-4[8:1],7,
2-6[8:1],2,7-3[8:1],7,{2}1>8[4:1],
{8},,,,,,,,5b<8[8:1]/4b>1[8:1],
4b/5b,,,,,,,7/1-5[8:1],
2,{4}1/3-8[8:1],6/3,{8}7/1-6[8:1],8,
{4}1/3-7[8:1],3/5V71[4:1],1V35[4:1],5-7[32:3],
1-4[8:1],5q8[16:7],2V48[16:3],2,
{8},,2,3,4/6,5,{4}2/4-8[8:1],
{8}1V75[16:3],2,{4}1/3-7[8:1],3,{8}6/8-4[8:1],7,
{4}8/2-5[8:1],2/5V38[32:9],{8}7v4[8:1],8,{4}7,
2-5[8:1],8-4[8:1],{2}4w8[8:1],
{8}2,1,6/8-4[8:1],7,{4}8/2-5[8:1],2/7,
{8}3/1-5[8:1],8,{4}1/7-4[8:1],7/2,{8}3-8[8:1],4,
{4}3/5<2[4:1],{8}2V47[32:9],3,{2}4-1[8:1],
{24}8b,7,6,5,,,1b,2,3,4,,,7b,6,5,4<2[4:1],,,8b,1,2,3,,,,,,,,,{8}3,
4,5/7,6,{4}3/5<2[4:1],
{8}3h[4:1],,,4,{4}6>3[8:1],{8}3pp6[8:3],2,
{2}1h[4:1],7-5[8:1]/1V37[4:1],
{8},,7/8,6,7/8,1,8/2,3,
4/5,5/4,{16}3,4,{8}2,{16}6,5,{8}7,{16}1-5[8:1],8,{8}2,
{1}1/5<4[4:3],
{2},6-2[8:1]/2<3[8:3],
{8},,,2,,,{4}8-5[2:1],
{8},,,,,,,,3/5,
,,7,,,{4}1-4[2:1],
,,{2}5>7[16:3],
{8}3h[4:1],6,5,2h[4:1],5,4,1h[8:1],7h[8:1],
6h[8:1],5h[8:1],4h[8:1],3h[8:1],2V48[4:1],4h[8:1],{4}2,
{8}7-4[8:1],1,7,2-5[8:1],8,2,8-4[8:1],2,
8,1-5[8:1],7,1,{24}7b,8-5[24:77],1-4[6:19],2,{1},,,,{4},{16},{64},{192},{256}6p2[4:11],
3q7[4:11],{1},,,{4},,,{16},,,{64},,,{128},{8}1>8[8:21],
,,6h[8:9],,,,,,,,,,,,,{4}4,
3,2,1,
,8/1,7/2,6/3,
{8}5/4,{4},{256}5w1[8:7],4w8[8:7],{1},{4},,{16},{64},,,{128},{8}6/8V64[16:3],
1,{4}8/2-6[8:1],2,{8}3/5-2[8:1],4,
{4}5/7-4[8:1],7/1>5[4:1],5<1[4:1],1-6[8:1],
4-7[8:1],4/3pp8[4:1],{2}8>2[8:1]/3<7[16:3],
{8},,8/7,6,5/3,4,{4}7/5-1[8:1],
{8}8V24[16:3],7,{4}8/6-2[8:1],6,{8}3/5-1[8:1],4,
{4}5/7-4[8:1],7/4V61[32:9],{8}2v5[8:1],1,{4}2,
7/3-8[8:1],3/5-2[8:1]*-8[8:1],5w1[8:1],5,
{8}7,8,3/1-5[8:1],2,{4}1/7-4[8:1],2/7,
{8}1-3[8:1]/7-3[8:1],8,{4}1-5[8:1]/7-5[8:1],7/1,{8}7/1-5[8:1],2,
{4}1/4>7[4:1],{8}4/7V58[32:9]*V52[32:9],6,{2}5,
{24}1b/7b,2,3,4,,,8b/2b,7,6,5,,,2b/7b,3,4,5,,,8b/1b,7/2,6/3,5-2[8:1]/4-7[8:1],,,,,,,,,,,,,,,{4}8-4[8:1]/1-5[8:1],
8/1>6[4:1],
{8}7h[4:1],,,8,{4}2/8<5[8:1],{8}4>1[8:1],3,
{4}4,{8}5,6,{2}7<8[16:5]/1>8[16:5],
{16},,,,3,5,3,5,4,6,4,6,3,7,3,7,
2,3,4,5,6,7,8,1,2/6,5,4,3,2V41[4:3],1,8,7,
{1}6V85[4:3],
{2}1>7[4:3],4>1[4:1],
{8},,,8,{4},{256}6-3[8:5],2-5[8:5],{1},{16},,,{64},,,{128},{8}1,
,,7/3,,,{4}5,
{8}6-2[8:1]/3-7[8:1],6/3,
E
