&title=BEYOND
&artist=安月名莉子
&first=0
&des=GAHOU
&lv_5=13+
&inote_5=(125)
{1},
{4},,,{16}4,5,3,4,
{8}2,1/3pp6[16:5],,8h[4:1],,,{16}7,5,6,4,
{8}5,4pp7[16:5]/3,,2h[4:1],,,{16}3,1,2,8,
{8}1,7/8pp3[16:6],,6h[8:3],,,,,
{8}1h[8:1]/7,5,8h[8:1]/2,4,1h[8:1]/7,4,{16}2,1,2,1,
{8}3h[4:1],8,6h[4:1],1,5h[4:1],8,{16}7,8,7,8,
{8}6h[4:1],1,3h[4:1],8,4h[4:1],1,{16}2,1,2,1,
{8}3bpp5[8:1],3,1b<6[8:1],1,2bp4[8:1],2,8b,,
{8}7/5,4,5/3,2,4b<7[8:1]/1b>4[8:1],,,,
{16}8h[8:1],,5,6,,6,5,,7/5-7[8:1],,4,,3,,,,
{16}1h[8:1],,4,3,,3,4,,2-4[8:1]/4,,5,,6,,,,
{16}8h[8:1],,5,6,,6,5,,7/5-7[8:1],,4,,2-4[8:1],,1,,
{8}8h[4:1],,5pp4[4:1],4,3b,,1b,,
{16}1h[8:1],,4,3,,5,4-6[8:1],,3,,1-4[8:1],,2,,7,,
{16}8h[8:1],,5,6,,4V25[16:3],5,,5b-1[8:1],,8b,,6b,,,,
{16}1h[8:1]/8,,4,3,,8h[8:1]/1,,5<4[4:1],6,,,,,,,,
{16}8h[8:1],,3,4/2,,5/6,,8,7/1w5[12:1],,,,,,,,
{16}7h[8:1]/5h[8:1],,,7h[8:1]/5h[8:1],,,8>6[4:1]/6,,,,7,,7,,,,
{16}8h[8:1]/2h[8:1],,,8h[8:1]/2h[8:1],,,1<3[4:1]/3,,4,,2,,2,,,,
{16}7h[8:1]/1h[8:1],,,7h[8:1]/1h[8:1],,,8p3[16:3]/6h[8:1],,,,1,,1,,,,
{16}8h[8:1]/2h[8:1],,,5h[8:1]/7h[8:1],,,4/2z6[16:3],,,,1b,,,,,,
{16}8h[8:1]/1h[8:1],,,6h[8:1]/5h[8:1],,,4-8[8:1]/3h[4:1],,,,,,,,1,,
{16}1h[8:1]/2h[8:1],,,5h[8:1]/4h[8:1],,,7/8,,1bv3[8:1]/6b<1[8:1],,,,6b/1b,,,,
{16}2v5[8:1]/8,,3,4,,,8,,2p6[8:1]/5,,3,4,,,8,,
{16}2<7[8:1]/5,,3,4,,,5,5,4/6,,4/3,,2/1,,2/1,,
{16}8b,3,7,4b,5,3,6b,2,8b,1,7,2b,5,3,6b,4,
{16}7h[8:1]/3h[8:1],,,8h[8:1]/1h[8:1],,,7/1,,2bq6[8:1]/6bq2[8:1],,,,,,,,
{16}8bp4[8:1]/1b,,7,,3<6[8:1],,1,1,,,2v5[8:1],,8/3,,6,,
{16}1b>4[8:1],,7/5,,4b,,8,8h[16:3],,,5,,6b/2b-7[8:1],,,,
{16}6-3[8:1],,5,,2-7[8:1],,1,1,6-3[8:1],,5,,2-7[8:1],,1,,
{16}6-3[8:1],,5,5,,,1,,8/3,,5/6,,4/2,,,,
{16}1bq5[8:1]/7b,,2,,6>3[8:1],,8,8,,,7v4[8:1],,1/6,,3,,
{16}1b>4[8:1],,6/8,,5b,,7pp2[4:1],7,,,2,,3,,4,,
{16}8/5,,6,6,5-8[8:1],,4,,3-6[8:1],,,,1-4[8:1],,8,,
{16}7>6[4:1],,6,6,,,,,1b,,8b/2b,,6b/5b,,7b/1b,,
{16}4bq8[8:1]/3b,,,,1<6[8:1]/4,,3,3,1>4[8:1],,3,,1/5,,7,,
{16}8,5,6,2p5[8:1],4,3,8,2b<4[16:3],,,,,3,,2,,
{16}8b/1b>4[8:1],,2,,8/1,,7,7,5b>2[8:1],,6,,5/8<5[8:1],,7,,
{16}8b/1b,,2-6[8:1],2,,,6,,8,,7/3,,5/1>4[8:1],,,,
{16}1b/5bp1[8:1],,7,,5/8>3[8:1],,6,6,8<5[8:1],,6,,8/4,,1,,
{16}2,4,3,8-4[12:1],5,6,2pp7[16:4],8b,,,2,,8,,6,,
{16}4b<7[8:1]/8b,,1>4[8:1],1,,,,,8b-4[8:1],,,,3,,2,,
{16}1b>4[8:1]/5b,,6<1[8:1],6,,,,,5b-1[8:1],,,,8,,6,,
{16}5/1,,3,4,,5/2,,4/3,4/3<6[8:1],,2/5,,1q5[8:1],,8,,
{16}7,,6,6,,7/4,,6/5,6/5,,7/4,,{24}6,5,6,5,6,5,
{8}7-4[8:1],8,2,{32}8,1,2,3,6,7,8,1,2,3,4,5,{16}1,7,1,7,
{8}2-5[8:1],3,7,{32}1,8,7,6,3,2,1,8,7,6,5,4,{16}8,2,8,2,
{8}7-4[8:1],6,2,{32}8,1,2,3,5,6,7,8,1,2,3,4,{4}5/1>4[8:1],
{8}6b/1b<6[8:1],,1b/3b,1b-5[12:1],,8/1,{16}6,4,5,3,
{8}4-7[8:1],2,4,{32}1,2,3,4,8,1,2,3,7,8,1,2,{16}5,4,5,4,
{8}5-2[8:1],6,5,{32}8,7,6,5,1,8,7,6,2,1,8,7,{16}4,5,4,5,
{16}2b,4,3,4,1b,5,4,5,{24}1b,2,3,6,7,8,{16}5b,6,5,6,
{16}4b,7,4,5,3b,8,3,4,{24}2b,1,8,3,2,1,{16}4b,8b,2bpp5[8:23]*pp5[8:23],6bpp1[16:45],
{1},
