&title=もちょっとトリッカル
&artist=コミー(CV:河瀬 茉希)、アヤ(CV:日笠 陽子)、ヨミ(CV:高野 麻里佳)
&first=0
&des=ランーバイーちゃん(cv:???)
&clock_count=4
&lv_5=13
&inote_5=(150){1},
,
{8}5<8[8:21]/4h[8:23],,,,,,,,
{1},,
{8},E8,B2,B6,4b-2[8:1]*-6[8:1],,4b,,
{8}7/1b,6,5x/3,3,4-7[8:1],2,,3h[4:1],
{8},8x,7,6,5x/3x,3x,4x/6x,6x,
{8}2/8,3,4x/6,6,5-2[8:1],7,,6h[4:1],
{8},1x,2,3,4/8,7,6/4,3,
{8}2/8,3,4x/6,6,2-5[8:1],8,,7h[4:1],
{8},1x,2,3,4x/6x,6x,5x/3x,3x,
{16}2x,5x,E2,B1,B8,E8,E6,B5,B4,E4,E1,B1,B2,E3,5xh[4:3],,
{8},,,Ch[8:3],,,,,
{8}4,3,2h[4:1],,6-3[8:1],6,1h[4:1],,
{8}5,5,2h[4:1],,7<4[8:1],7,3h[4:1],,
{8}5,6,7h[4:1],,3-6[8:1],3,8h[4:1],,
{8}4,4,7h[4:1],,2-5[8:1],2,6h[4:1],,
{8}4,3,2h[4:1],,8-4[8:1],8,1h[4:1],,
{8}6,6,2h[4:1],,,3x/5x,4x/6x,5x/7xh[4:1],
{8},1,6h[8:1],4,3/5h[8:1],2,1/4h[8:1],1pp7[4:1],
{8},7<1[4:1],6,5h[4:1],,,,,
{8}3-6[8:1],3,8,,7-4[8:1],7,2,,
{8}8v3[8:1],8,5,7xbh[16:1],,,,,
{8}4x-1[8:1],,4/7,,5-8[8:1],5,2,,
{8}1-5[8:1],1,7,,6x/4x,3,7/1,{16}8x,2x,
{8}8x-4[8:1],4,3h[8:1],,2-6[8:1],6,7h[8:1],,
{8}7p6[4:1],3,2h[8:1],,,6x/4x,5x/3x,4x/2xh[4:1],
{8},8,3h[8:1],5,6/4h[8:1],7,8/5h[8:1],6xpp4[4:1],
{8},6,3-8[8:1],2,3x/4x,,,,
{32}7bh[2:1],B4,B5,B6,B7,B8,B1,B2,E4,E5,E6,E7,E8,E1,E2,E3,{8}E4/D4/A4f,,,7/4,
{16}6h[16:3],,,5h[16:3],{8},4,E2,B3/B4/E4,E8,B6/B5/E6,
{32}3bh[2:1],B4,B3,B2,B1,B8,B7,B6,E5,E4,E3,E2,E1,E8,E7,E6,{8}E5/D5f/A5,,,5/3,
{16}2h[16:3],,,3h[16:3],{8},4,E6,E8/B7/B8,E4,E2/B2/B1,
{8}8<4[4:1],,4>8[4:1],,8-4[8:1],,3,,
{8}1>5[4:1],,5<1[4:1],,1-5[8:1],,6,,
{8}8/4,8,7/3,7,6/2,6,5/1,5,
{16}1,5,1,5,2,6,2,6,3,7,3,7,{32}D5,D6,D7,D8,D1,D2,D3,D4,
{8}8bpp3V57-4[4:5]/D5,,,,,,,,
{8},,,,,Ch[8:1],5b-1b[8:1],,
{8}5/3,4,8/2,6,{16}3,4,,7/1,{8},1/2-5[8:1],
{8},2/6<1[8:1],7,6/4,2>5[8:1],5qq3[8:1],2/1,6,
{8}7,4,6/5,8,{16}3,5,,8/2,{8},7v4[8:1]/8,
{8},7/3>8[8:1],2,3/5,7<4[8:1],4q1[8:1],7/1,2,
{8}3,6,3/4,1,{16}6,5,,8/2,{8},7-4[8:1]/8,
{8},3>8[8:1]/7,2,3/5,6,7/1,3,4/5,
{8}6V47[4:1],4,7>4[4:1],8,1h[4:1],,,5/3,
{8},7bh[4:3]/4b,,5qq8b[4:1],5b,,,,
{8}1x/6x,{24}E2,B2,B3,{8}E4,8,7,6qq7[4:1]/4,,2,
{8},{24}E3,B3,B4,{8}E5,6x,35,1x,54,7x,
{8}3/5,{24}E4,B4,B5,{8}E6,1,8,7pp6[4:1]/5,,3,
{8},{24}E3,B2,B1,{8}E1,6x,34,5,61,7,
{8}8/2,{24}E8,B7,B6,{8}E6,1,2,3pp2[4:1]/5,,7,
{8},{24}E7,B6,B5,{8}E5,3x,64,8x,45,2x,
{16}6x,4x,D4,D3,D2,D1,D5,D6,D7,D8,4x,3x,2x,1x,{8}5bV74[4:1],
{8},4xq5<7[8:3],2xb,,,,A3/E3/A2/D3,,
{8}4xh[1:1],,D6`A5,,,,D6`A5,,
{8}6xh[1:1],,D4`A4,,,,D4`A4,,
{8}3xh[4:1],,E7`B6,,3xh[4:1]/5x,,E7`B6,,
{8}5xh[4:1]/3x,,E3`B3,,4w8[8:1],,4xqq5b[4:1],,
{8},,6b,,8v6[8:1]/4,3,2h[8:1],,
{8}1V35[16:3]/5,6,7h[8:1],,,8x/5x,7x/4x,6xh[4:1]/3x,
{8},1,7h[8:1],4,6h[8:1]/3,2,5h[8:1]/1,3xqq5[4:1],
{8},3,6-1[8:1],7,6x/5x,,A4/E4/D4,,
{8}1/7,,1V35-7[2:1],,,,7V13-5[2:1],,
{8},,5<3[2:1],,,,3<1[2:1],,
{8},,1pp5[2:1],,,,5xqq6[8:3],6x,
{8},,7h[4:1],,6h[4:1],,5h[4:1],,
{8}4,,7-4[8:1]/2,,1,{16},3qq2[16:3],{8},7/3,
{8},,6h[4:1],,5h[4:1],,4h[4:1],,
{8}3>7[4:1],,7<3[4:1],,3V15[4:1],,5x,6x,
{8},7V53[16:3],1-5[8:1],7,1bw5b[8:1],,B1,,
{8}4b/7b<4[8:1],6,7/3>8[8:1],2,{16}3,4,,7,{8},2>4[8:1]/4,
{8},5v2[8:1]/2,7,8<5[8:1]/5,1,4q8[8:1]/8,3,1/4,
{8}2>5[8:1],3,2/6<1[8:1],7,{16}6,5,,2,{8},6h[4:1]/4,
{8},3,1qq8b[16:3]/7,8,2bpp3b[16:3]/1b,4,2b,6,
{8}7-3[8:1],6,7/1-5[8:1],2,{16}1,8,,6,{8},8q5[8:1],
{8},4<7[8:1]/8,1,2,3>8[8:1],8q4[8:1],5,6,
{8}7-1[8:1],1-6[8:1],6>8[4:1],4,3h[4:1],,,7xb/2xb,
{8},5bqq8[4:1]b*qq7b[384:92]/3b,,5b,B4/B3/E4,,A6/E7/B6/E6/A2/E2/B2/E3,,
{8}8h[4:1],,2h[4:1],,6h[4:1],,3V52[4:1],3x,
{8},7x,6x,5x,{32}4x>5b[4:1]/E2,B1,B8,E8,{8},,,
{8}1bh[8:1],{24}4x,5,6,{8}2,8v3[8:1],7,6qq7[4:1]/8,,2,
{8},{24}3x,4,5,{8}7x,3,5h[4:1],8x,4h[4:1],2x,
{8}7,{24}6x,5,4,{8}1,8>3[8:1],7,6pp6[4:1]/8,,6,
{8},{24}5x,4,3,{8}7x,2,3h[8:1]/4,5,6/4h[8:1],7,
{8}8h[8:1]/5,{24}5x,4,3,{8}7,1v6[8:1],2,3pp2[4:1]/1,,3,
{8},{24}6x,5,4,{8}1x,7,4h[4:1],1x,5h[4:1],7x,
{16}2x,6x,3x,5,3,6x,4,6,2x,4,2,7x,5,7,{8}1bpp4b>8b[4:3],
{8},,,8b<4b[4:1],,,,,
{8}5xh[1:3]/2bxq7[4:11],,,,,,,,
{8},,,,,,,,
{8},,,,,,,,
&inote_7=
