&title=SOLROS
&artist=Grand Thaw
&first=0
&des=おにねこ
&wholebpm=188
&lv_5=13+
&inote_5=(188)
{1},,
{2},,
{8},,,,,,
{16},,4,4,
{8}5,,2,1,,3,4,,5,,6,{16}2,3,
{8}4,,7,8,,6,5,,4,,3,{16}7,6,
{8}5h[8:3],,2,1h[8:3],,6,7h[8:6],,2,,3,{16},,
{8}4h[8:3],,8,7h[8:3],,2,3,,2b/8,,7b/1,2,
3h[8:3],,4,5h[8:3],,6,7,,8,,61,,{12}2,1,2,{8}3,,34,,
{12}5,4,5,{8}6,,75,,
6h[8:3],,5,4h[8:3],,3,2,,1,,3/8,,7,{16}7,8,6,,5,,4,,3,,
{12}2,4,3,{8}6h[4:1],,5h[4:1],,
4h[8:3],,3,2h[8:3],,6,{12}7,5,6,{8}3h[4:1],,5h[4:1],,
{12}2,4,3,{8}7h[4:1],,3h[4:1],,
6h[4:1],,4,4,5h[8:2],,
3h[4:1],,
1h[4:1],,7h[4:1],,5,,{12}51,26,37,8/4>6[32:10],,,{8}
6b/4b,,5,5h[4:1],,3,2,5,6,4,7<4[8:1],,
47,,3,3,1,2,{12}8q4[8:1],7,6,{8}8,,5<3[32:10],,
53,,4,4h[4:1],,6,7,4,3,5,2/6h[4:1],,
1,{16}6,6,5,,{8}8,2,5,{16}3,3,4pp3[16:11],,{4}
2,1,8,1,2,3b,,,,
{8},6,5,4,
7h[8:6],,6,,5,,4<7[8:4],,,,,3,
3h[8:6],,4,,5,,6,,,
3,4,5,
2h[8:6],,3,,4,,5>2[8:4],,,,,,
6h[8:6],,5,,4,,3,,,,
2,2,{24}3,4,3,,,,{8}5,,6,6,{24}7h[8:4]/5,,,,,,{8}4,,3,,{24}2h[8:4]/4,,,,,,{8},,
5,5,{24}6h[8:4]/4,,,,,,{8},,3,3,7h[8:1],5h[8:1],6h[8:1],3h[8:1],4h[8:2],,2,4,3,6,4q5[16:8],,
8,,7,,6,,5b/1b,,,,
1,2,3/6h[8:2],,5,7/4h[8:2],,5,3/6h[8:2],,1h[8:4],,,3,3h[8:2],,{16}
7,4,8,5,{8}1,,81,2,4,3,5,4,
6/3h[8:2],,4,2/5h[8:2],,4,6/3h[8:2],,8h[8:4],,,6,6h[8:2],,{16}
3,5,2,4,{8}1<4[8:3],,4,,,,3,2,1pp4[8:4]/8,,7,7,,6,6h[8:2],,5h[8:2],,4,3,
{24}5pp8[8:4]/2,,,{8},2,2,,3,
{24}3h[8:2],,,{8},4,4,5,6,
4/7h[8:3],,,{16}4,,5,,3,,4,,2,2,8,,6,,7,,2,,
{8}5z1[8:8]/1s5[8:8],,,,,,,,,,,,
{16}2,,8,3,{8}8h[16:20],,,,4,,3,,2,,
{16}1,,2,6,{8}2h[16:20],,,,5,,6,,7,,
{16}8,,7,3,{8}7h[16:20],,,,5,,4,,3,,
{16}2,,3,5,{8}3h[16:20],,,,4,,5,,6,,
7p4[8:5],,,,,,1,,,,,,3q5[8:5],,,,,,8,,,,
6,5,7pp5[8:7],,,,,,4,,3,,2h[8:2],,
{8}
8,{16}8,1,{8}7,8,6,6,
2,{16}2,8,{8}3,1,4,4,
6,{16}6,1,{8}5,8,4,4,3b/7b,,
5,,6,,2h[8:2]/7,,1,3,6,8,7>2[8:1],,,,
4,5,3h[8:2]/6,,4,2,6,5,7<4[16:2],{16}3q8[16:4],2,1,,,,,,,,
{8}1,,8p4[16:3],3,4<7[8:1],3,2,,1q5[16:3],6,5>2[8:1],6,
7,,8h[16:8],3,4,3,{16}2,,7,1,7,,6,,5h[8:2]/4,,,,
{12}
2,3,4,8,7,6,4,3,2,17,6,5,1,2,3,5,6,7,
83,4,5,1,8,7,5,4,3,26,5,4,8,1,2,7/3h[8:2],,,
6,5,4,7,6,5,8,7,6,52,3,4,1,2,3,8,1,2,
37,6,5,8,7,6,1,8,7,{8}2b/6b,,1b/5b,,8bqq5[8:10]/4b,,
3bqq8[8:16],,,,,,,,,,,,,,,,,,,,,,
18,18,2>8[8:14]/7<1[8:14],,,,,,,,,,,,,,,,,,,,
2h[8:2],,8h[8:3],,{24}
1,2,3h[24:16],{8},,6,,7,{24}
8,7,6h[24:16],{8},5,,4,,{24}
2,3,4h[24:16],{8},5,,6,,{24}
7,6,5h[24:13],{8},3,,2,2,
5b/1b,,3b/7b,6,2,3,4b/8b,,6b/2b,3,7,6,5b/1b,,3b/7b,4h[8:3],,,
1<4[8:2],,5>8[8:2],,8<3[8:2],,3pp7[16:8],,2,2,,1,
1q5[8:1],,6<1[8:1],,4p8[8:1],,{16}8q5[16:3],7,6,,,,,,,,,,{8}
8/1>6[8:2],,5<2[8:2],,2>6[8:2],,6qq3[16:8],,7,7,,8,
8p4[8:1],,3>8[8:1],,6q2[8:1],,{16}2p5[16:3]*<6[16:3],3,4,,,,,,,,,,{8}
3h[16:8]/7,,4,,1,2,
38,,7p3[16:2],3<8[16:4],2,1,8qq1[16:5],,1,2,3,4,{24}8-4[8:1],7,6,5,,,{8}8<5[8:1],,8>3[8:1],,{24}8qq5[16:8],,,,,,{8},,1,2,3h[8:2],,
7h[8:1],5h[8:1],3h[8:1],1h[8:1],7h[8:2],,1>4[16:3],3<6[16:3],5<8[16:3],7>1[16:2],1,,6,4,2q7[16:2],8,2/6bq3[16:2],,6/1bp4[16:2],,1/5bp8[16:2],,5/3b>4[8:8],,
,,,,,,,,,,
6,,4,5,,3,4h[8:4],,7,,1,,
3,,5,4,,6,{12}5,5,7,4,4,6,3,,,
{24}8,7,6h[24:31],,,,{8},,,,,,,,5,4,3>6[16:33]/5q4[16:33],,,
