&title=「四季」より「冬」
&artist=光吉猛修「原曲:ヴィヴァルディ」
&first=0.152
&des=【场外】多冷的隆冬
&des_5=【场外】多冷的隆冬
&lv_5=14+
&inote_5=(150){4},,,,1h[8:1],
1h[8:1],1h[8:1],1h[8:1],
1h[8:1]/3h[8:1],1h[8:1]/3h[8:1],1h[8:1]/3h[8:1],1h[8:1]/3h[8:1],
3h[8:1]/5h[8:1],3h[8:1]/5h[8:1],3h[8:1]/5h[8:1],3h[8:1]/5h[8:1],
5h[8:1]/7h[8:1],5h[8:1]/7h[8:1],5h[8:1]/7h[8:1],5h[8:1]/7h[8:1],
{8}1/7,1,7/1,1,1/7,1,7/1,1,
3/1,3,1/3,3,3/1,3,1/3,3,
5/3,5,3/5,5,5/3,5,3/5,5,
7/5,7,7/5,7,7/5,7,7/5,7,
5/3,1,5/3,1,7/3,1,7/3,1,
5/7,1,5/7,1,5/7,3,5/7,3,
1/5,3/7,1pp3[4:1]/5pp7[4:1],3/7,{2}1b/5b,
{8}3b/7b,{16}3,7,5,7,5,7,{8}1,{16}3,7,5,7,5,7,
1,7,3,7,5,7,3,7,{8}1b,3b/5b,5b/7b,1b/3b,
3b/5b,5b/7b,7b/1b,3b/5b,3b/7b,{16}7,3,5,3,5,3,
{8}1,{16}7,3,5,3,5,3,1,3,7,3,5,3,1,3,
{8}5b,7b/1b,5b/3b,1b/3b,5b/7b,5b/3b,1b/7b,5b/7b,
7b/3b,{16}1,5,1>3[12:1],5,1,5,{8}1,{16}7,5,7<5[16:1],5,7,5,
{8}7,{16}3,5,3,5,3,5,{8}1>3[12:1],7qq5[8:1],1,7,
3qq1[8:1],7<5[12:1],3,7,1b>3[12:1],5b<7[12:1],1b,5b,
3p7[8:1],3,3b/5,5,5q1[8:1],5,5b/3,3,
3<5[12:1],3,3b/1,1,1qq7[8:1],1,1b/3,3,
1b/7b,3b/5b,1b/7b,3b/5b,{2}7b/1bp5[8:5],
{8}3,3,3,3,7b/1b,5b,1b/3b,5b,
7b/1b,5b,1b/3b,5b,{16}7bp3[8:5],3,1,3,1,3,1,3,
{8}1,1,1,1,3b/5b,7b,3b/5b,1b,
3b/5b,7b,3b/5b,1b,{16}3bpp7[8:5],5,1,5,1,5,1,5,
{8}1,1,1>4[8:1],1,1b<6[8:1],7b,1bq5[8:1],3b,
1bp5[8:1],7b,1b,3b,{16}1bp7[8:5],7,5,7,5,7,5,7,
{8}5,5,5,5,1b/7b,1b/3b,7b/1bp4[8:1]*q6[8:1],1b/3b,
{1}1b>1[2:3]*<1[2:3],
{8},,,,,,,,3<7[2:1],
5,{4}1h[4:1],{8},,3>7[2:1],1,
,5,{4}5>7[4:3],,,5,
5q1[8:3],{8},,,,1/3,
7/1,7/5,5/3,1b,{16}3,5,{8}1,{16}5,3,
{8}7,{16}3,5,{8}1,7,5/3,5/3,5/7,7/5,
{16}1,5,3,7,1,5,3,7,{2}1b>5[8:1]*q5[8:1],
{16}7,7,7,7,7,7,7,7,{2}7b>1[12:1]*<5[12:1],
{16}3,3,3,3,3,3,3,3,{2}3b<7[8:1]*q7[8:1],
{16}1,1,{8}1,{16}7,7,{8}7,{2}1bpp3[8:1]/5b<7[12:1],
{16}1,1,1,1,1,1,1,1,1,7,1,7,1,7,1,7pp4[16:29],
{1}1bqq4[4:7],
{4},,,,,,3q7[4:1],
3,
1q5[4:1],1,7q3[16:3],7,
5q1[16:3],5,{8}3h[8:3],{16}1,7,{8}5,{16}1,7,
5,3,1,7,{4}5/1b,{16}7,5,7,5,3,5,3,5,
{8}7,7h[8:1],1h[8:1],5h[8:1],{16}1,5,1,5,7,5,7,5,
{8}1,1h[8:1],7h[8:1],5h[8:1],{16}1,5,1,5,3,5,3,5,
{12}1b,1,1,3b,3,3,{2}5b<7[12:1]*>3[12:1],
1b>3[12:1]*<7[12:1],5bpp7[8:1]*qq3[8:1],
5bq1[8:1]*p1[8:1],3bpp5[8:1]/7bqq5[8:1],
3b>1[12:1]/7b>1[12:1],7bp1[8:1]/3bq1[8:1],
7b<5[12:1]/3b<5[12:1],{16}7/1,,,5,{8}3,3,
{16}3/5,,,7,{8}5,5,{16}5/7<5[8:1],,,1,{8}7,1,
{16}5/1>3[8:1],,,7,{8}1,7,{16}7/5>3[8:1],,,7,{8}5,7,
{16}1/7<5[12:1],,,1,{8}7,3,{16}3,7h,1,5h,3,1h,5,7h,
1,5h,1,7h,3,1h,5,7h,3,5h,1,7h,3,5h,1,7h,
5,7h,1,5h,3,1h,5,7h,{2}1bqq5[4:3]*pp5[4:3],
{8},,,,,3h[16:1]/7h[16:1],7h[16:1]/3h[16:1],3h[16:1]/7h[16:1],
7/3,3/7,3/7,3/7,5/1b<7[12:1],5,5/1b>3[12:1],5,
5/1b<7[12:1],5,1b/5,5,5/1bp5[8:5],{16}3,3,3,3,3,3,
{8}3,3,3p7[8:1],3,3b/5q1[8:1],5,5b/3p7[8:1],3,
3b/5q1[8:1],5,5b/3,3,7b/3b<7[8:5],{16}1,1,1,1,1,1,
{8}1,1,1q5[8:1],1,1b/7p3[8:1],7,7b/1q5[8:1],1,
1b/7p3[8:1],7,7b/1,1,5b/1bpp5[8:5],{16}7,7,7,7,7,7,
{8}7b,7b,7b,7b,7b/1b,3b/5b,3b/1b,5b/7b,
3b/7b,{16}5,1,7,3,5,1,{8}7,7,7p3[8:1],7,
7/1,1,1,1,{16}7,5,1,3,7,5,1,3,
{8}7p3[8:1]/5p1[8:1],3/1,{4}5b/7b,{8}1pp3[8:1]/5pp7[8:1],3/7,{4}1b/5b,
{8}1/5<7[12:1]*>3[12:1],{16}7,3,{4}5b,{16}1/5,3,5,7,{24}1b,3b,5b,7b,1bp4[12:1]*q6[12:1],3b,
{8}5b,1b<1[4:7]*>1[4:7]*<1[4:7]*>1[4:7]*<1[4:7]*>1[4:7]*<1[4:7]*>1[4:7]*<1[4:7]*>1[4:7],
E
