&title=星見草[SD]
&artist=秋田 真典
&first=0.0333
&des=KoYi.
&des_5=KoYi.
&lv_5=13+
&inote_5=(164){1},,
{8}35,3-8[8:1]/5,,7,7-4[8:1],,1-3[8:1],,
1-7[8:1]*-5[8:1],,1w5[8:1],,1,,37,,
64,6-1[8:1]/4,,2,2-5[8:1],,8-4[8:1],,
8>2[8:1]*<6[8:1],,8w4[8:1],,8,,6b/2b,,
3>8[4:1],,8<4[4:1],,4-8[8:1],,8,,
7>2[4:1],,2>5[4:1],,5-1[8:1],,1,,
2,3,14,5,6,7,58,1,
2h[4:1],,4h[4:1],,6h[4:1],,8h[4:1],,
1bw5[2:1],,,,,,,,
37,{16}1,8,{8}1q5[8:1],5,1,6,8b,,
46,3,25,{16}3,4,{8}3,2,1,8,
47,7,6,3/5h[8:5],,,1,2,
3>8[4:1],,8<5[4:1],,5>1[4:1],,1<2[2:1]
,,
6h[4:3],,,,,,1,,
53,6,74,{16}8,7,{8}46,3,28,7,
6,6-8[8:1],4h[8:3],6,,,2,2,
3,3-1[8:1],5h[8:3],3,,3,6h[2:1],4h[8:5],
,,,,2h[2:1],,8h[4:3],,
,,2-6[8:1],,2b,,,,
{16}25,,25,,3,4,3,,47,,47,,6,5,6,,
{8}25,2-5[8:1]/5-1[8:1],6,2/5V38[4:1],,7,6,6,
{16}74,,74,,6,5,6,,52,,52,,3,4,3,,
{8}48,4-8[8:1]/8-6[8:1],,4/8-3[8:1],,6,6,,
2-5[8:1],5V38[4:1],2,8-4[8:1],7,6,5,,
7-4[8:1],4V61[4:1],7,1-5[8:1],2,3,4,,
{4}2-6[8:1],2>5[8:1]/6<1[8:1],2-7[8:1]/6-3[8:1],26,
8b>8[2:1]/4h[4:3],,,,
{16}15,,,15,,,15,,3b-8[8:1]/7b-4[8:1],,,,,,,,
{8}15,2,34,5,6h[4:1]/8,{16}1,2,{8}3,4,
84,7,65,4,3h[4:1]/1,{16}8,7,{8}6,5,
34,2,34,5,6-8[8:1]/1-5[8:1],,16,,
84,7,65,4,3h[4:1]/1,{16}8,7,{8}6,5,
15,2,34,5,6h[4:1]/8,{16}1,2,{4}3-8[4:1],
8-5[4:1],5-2[4:1],2-7[4:1],7<1[2:1],
5h[2:1],,,{16}1,5,2,4,
3,,,37,,,37,,{4}1b-4[8:1]/5b-8[8:1],,
{8}37,6,45,3,8/2h[4:1],{16}8,7,{8}6,4,
62,3,54,6,1/7h[4:1],{16}1,2,{8}3,4,
56,7,18,2,34,26,18,,
2-4[8:1],1,2,8,7-5[8:1],8,7,1,
3-1[8:1],4,3,5,6-8[8:1],5,6,4,
3-6[8:1],3,2,1,8-3[8:1],8,7,6,
5,37,4,26,57,{16}3,5,{4}1h[4:1],
(70.6666667){12},,,4>8[4:1],6,7,
8s4[4:1],7,6,5,5,5,
5h[6:1],,,5<1[4:1],3,2,
1z5[4:1],2,3,4,3,2,
1h[6:1],,,1>5[4:1],7,6,
5z1[4:1],6,7,8,7,6,
{4}5<2[4:1],2p4[4:1],4>8[4:1],8q6[4:1],3h[3:1],{12},
(162){8}7<4[8:1],,3,2-5[8:1],,6,8-4[8:1],,
2>5[8:1],,6,7-4[8:1],,3,1-5[8:1],,
6-2[8:1],,4,3-7[8:1],,6,6h[4:1],,
8,8V24[4:1]*V64[4:1],,,,,,,
8/3h[4:3],,5,5,,,{16}1,8,7,6,
3,4,5,6,7,8,1,2,37,6,5,4,3,2,1,8,
7-4[8:1],,,,,,3,2,1-5[8:1],,,,6h[4:1],,,,
2-5[8:1],,,,,,6,7,8-4[8:1],,,,2b,,,,
1,2,3h[4:1],,,,8,27,1/6h[4:1],,,,1,25,4/3h[4:1],,
,,8,47,56,,,,7-4[8:1]/4-1[8:1],,,,74,,,,
5,6,7h[4:1],,,,4,63,5/2h[4:1],,,,5,61,8/7h[4:1],,
,,4,3,2/1-7[8:1],,,,1-3[16:1],,,1-5[16:1],,,1,,
4,3,2h[4:1],,,,1,38,4/7h[4:1],,,,8,61,5/2h[4:1],,
,,1,38,47,,,,5-2[8:1]/6-1[8:1],,,,56,,,,
{4}3-1[8:1]/8-4[8:1],,2-5[8:1]/5-1[8:1],,
{8}8h[8:7]/4,4,4,4,3,3,3,3,
{16}3,4,2,5,1-5[8:1],,86,,15,,,,3b/7b,,,,
{16}8/1V35[4:1],7,6,,{8}1/5-1[8:1],6,7-3[8:1],,37,,
{16}1/8V64[4:1],2,3,,{8}8/4-8[8:1],3,2-6[8:1],,62,,
7,{16}3,4,{8}2-5[8:1],8,2/6-1[8:1],,46,,
3V17[4:1],,7V13[4:1],,5h[4:1],,,,
{16}1/5V71[4:1],2,3,,{8}5/1-5[8:1],2,2-6[8:1],,62,,
{16}8/4V28[4:1],7,6,,{8}4/8-4[8:1],7,7-3[8:1],,37,,
2,{16}6,4,{8}8-4[8:1],7,8/2-6[8:1],,27,8,
1b>3[8:1]*<7[8:1],,1bw5[8:1],,1b,,3b/7b,,
25,{16}3,4,{8}1,8,74,{16}6,5,{8}8,1,
2-6[8:1],6V42[4:1],2,7,8-4[8:1],,8,3,
74,{16}6,5,{8}8,1,25,{16}3,4,{8}2,2,
8,8,{16}37,26,15,48,{8}3b/7b,,1b/5b,,
64,6-1[8:1]/4,3,2,2-5[8:1],,8-6[8:1],,
8-2[8:1]*-4[8:1],,8w4[8:1],,8,,62,,
35,3-8[8:1]/5,6,7,7-4[8:1],,1-5[8:1],,
1,,{16}48,37,26,15,{8}48,,26,,
1-5[8:7],,,,,,1,,
1V35[3:1]*V75[3:1],,,,,,,,
(243){8}3b/7b,,37,,3,5,
1-3[8:1],,1-7[8:1],,1,,
5-3[8:1],,5-7[8:1],,5,,
8-3[8:1],,8-5[8:1],,8,,
2b/6b,,37,,7,1,
5-7[8:1],,5-3[8:1],,5,,
1-7[8:1],,1-3[8:1],,1,,
5-8[8:1],,5-2[8:1],,(162){12}5<3[4:15],,,,,,4h[2:7],
