&title=99 Glooms
&artist=Sta
&first=0
&des=yuzukeai
&lv_5=14
&inote_1=
&inote_4=
&inote_5=(185)
{1},,
{16}2b-6[4:2]/6,,,,,,,,,,,,,,,,7h[12:1],,,,3h[12:1],,,,5h[12:1],,,,1h[12:1],,,,
6,2,6,,4,8v7[8:1],4,,,,,,
{16}4,3,2,,{16}6/8-4[1:1],,,,5,,,,5,,,,5,,,,6,,,,6,,,,7,,,,8,,,,
12,,,,3,,,,47,,,,47,,,,3h[8:1],,,,6h[8:1],,,,5,,7,,3,,2,,
1/4-8[1:1],,,,1,,,,1,,,,1,,,,2,,,,2,,,,3,,,,4,,,,
65,,,,7,,,,8,,,,16,,,,7h[8:1],,,,3h[8:1],,,,6,,6,,8,1,2,3,
4/8-4[2:1],,,,3,,,,2,,,,1,,,,1-5[2:1]/5,,,,6,,,,7,,,,8,,,,
8h[8:1]/4,,,,7h[8:1]/3,,,,6h[8:1]/2,,,,5h[8:1]/1,,,,
{12}2,6,3-1[8:1],7-5[8:1],,3,7,,,2,6,3,7bz3[2:1],,,2h[8:1],,,2h[8:1],,,2h[8:1],,,
2bs6[2:1],,,8h[8:1],,,8h[8:1],,,8h[8:1],,,
{16}8b-4[8:1],,,,81,,2,,3,,,,6h[8:1]/3h[8:1],,,,4,5,4,5,3,6,3,6,2,7,2,7,1,8,1,8,
2-4[8:1]/7h[4:1],,,,,,,,7-5[8:1]/3h[4:1],,,,,,,,
2-5[8:1]/6h[4:1],,,,,,,,1h[4:1]/7-3[8:1],,,,,,,,
2h[2:1],,1,,8,,7,,6,,5-1[8:1],,1,,,,
2,,2,,{12}8,7,6,{16}3,,4,,5,,6,,74,,,,25,,,,74,,,,25,,,,
1h[8:1]/6h[8:1],,,,2h[8:1]/7h[8:1],,,,3h[8:1]/8h[8:1],,,,1h[8:1]/4h[8:1],,,,
5b-8[8:1],,,,3,,,,1-4[8:1],,,,7,,,,8-5[8:1],,3-8[8:1],,8,,3,,4,,4,,1,2,3,4,
5h[4:1]/8-6[8:1],,,,,,,,5-7[8:1]/2h[4:1],,,,,,,,
8h[4:1]/4-2[8:1],,,,,,,,5h[4:1]/1-5[8:1],,,,,,,,
7h[2:1],,8,,1,,2,,3,,4-8[8:1],,8,,,,
7,,7,,{12}1,2,3,8,7,6,{16}54,,36,,2/7-2[8:1],,,,47,,,,3-6[8:1],,,,83,,,,
4h[8:1]/7h[8:1],,,,3h[8:1]/6h[8:1],,,,2h[8:1]/5h[8:1],,,,1h[8:1]/4h[8:1],,,,8,,7,,6,,5,,1,,2,,3,,4,,6,5,4,3,2,1,8,7,4,5,3,4,1b,7b,8b,6b-2[1:2],
{1},,,,
{4},,,{12}3,5,4-1[1:1],
{1},,
{16}1,8,1,8,2,7,2,7,3,6,3,6,4,5,4,5,2b-5[16:1],,,,,,6b-1[16:1],,,,,,3b-6[16:1],,,,,,7b-2[16:1],,,,,,4b-1[16:1]*-7[16:1],,,,,,,,
6b/3b-8[16:1],,,,,,7b-4[16:1],,,,,,2b-7[16:1],,,,,,6b-3[16:1],,,,,,8,1,2,3,4b/8b,,,,4b/7b-5[16:1],,,,,,2b-6[16:1],,,,,,8b-4[16:1],,,,,,1b-6[16:1],,,,,,8bw4[16:1],,,,,,,,1-6[16:1],,,7-3[16:1],,,2-5[16:1],,,6-4[16:1],,,1b,,,,
1,2,3,4,5,6,7,8,15,4,3,2,1,8,7,6,5v7[4:1]/1b>5[4:1],,,,1/5V31[8:3],,,,,,,,8z4[4:1]*v5[4:1],,,,
,,,,,,,,7,2,7,2,8,1,8,1,7-4[8:1],,2-5[8:1],,7V13[2:1],,2,,,,,,,,,,4-7[6:1],,,,3h[8:1],,,,4-1[6:1],,,,5h[8:1],,,,
2,3,4,5,6,,,,7,6,5,4,3,,,,1-5[8:1]/4,,,,1,,,,4/7-4[8:1],,3,,2,,,,
2-5[8:1],,,,28,,1^7[8:1],,,,15,4,3,,,,
7-2[8:1],,3-6[8:1],,7,,3,,,,8,,4v1[8:1]/8-5[8:1],,,,4b/8b,,,,2,3,4-8[8:1],,7,,7,,6b<3[8:3]*V84[8:3],,,,
,,,,,,,,2,7,2,7,1,8,1,8,2-5[8:1],,7-4[8:1],,2V83[2:1],,7,,,,,,,,,,5-2[6:1],,,,6h[8:1],,,,5-8[6:1],,,,4h[8:1],,,,
7b,6,5,4,3,,,,1,2,3,4,5,,,,8-3[8:1]*-5[8:1],,,,8,,,,1,,6,4,5,,2,4,
3-7[8:1],,,,3,,4-8[8:1],,,,4,,1h[8:1],,,,
1b,,,,2b,,,,3b-7[8:1],,,,4b,,,,
5>1[4:1],,,,1<5[4:1],,,,5,,,,3,,,,
4<8[4:1],,,,8>4[4:1],,,,4,,,,6,,,,
7,,2,4,3,,6,4,5,,2,8,1,,1,,6,5,6,5,7,4,7,4,8,3,8,3,1,2,1,2,
1<5[4:1],,,,5>1[4:1],,,,1qq7[4:1],,,,4,,,,
5>1[4:1],,,,6,,,,5<8[16:3],,,,4,,,,
4,,7,5,6,,3,5,4,,7<5[8:1],1,8,,7,,1,2,3,4,5,6,7,8,15,4,3,2,1,8,7,6,
5/2-7[8:1],,,,2/5-8[8:1],,,,51,,,,1,2,3,4,7,,7,8,6,,3,4,2,,6,6,5,7,4,8,
{24}3b,2,1,8,7,6,5,4,3,2,1,8,{16}4,5,6,7,1,2,3,4,7,8,7,8,5,4,5,4,1,2,1,2,8,7,6,,
{16}1,,1,2,38,,8,7,62,,2,3,4>8[6:1]/7,,,,74,6,5,4,3,2,1,8,73,4,5,6,7,8,1,2,
6,5,6,3,4,3,7,6,7,2,3,2,7,8,6,1,5,4,3,2,1,8,7,6,2,3,4,5,1,8,7,6,
1b,,,,,,8-6[8:1],,,,1,,,,2-4[8:1],,,,,,5,,1-3[8:1],,,,8,,,,7-5[8:1],,,,,,
4-7[8:1],,3,,2,,1-4[8:1],,8,,7,,6,,5,,4,,3,,2v1[8:1],,2,,,,,,
6h[4:1],,,,4,,8-6[8:1],,,,18,,,,2,,3h[4:1],,,,5,,1-3[8:1],,,,81,,,,7,,6h[4:1],,,,
4-7[8:1],,3,,2,,1>4[8:1],,8,,7,,6V84[8:2],,5,,4>5[2:1],,,,,,,,{16},,,,
1b-4[8:1],,,,17,,,,8-5[8:1],,,,28,,,,1-6[8:1],,,,7-3[8:1],,,,2-5[8:1],,,,6h[4:1],,,,
{12}8,1,2,3/7h[4:1],,,1,2,3,4/8h[4:1],,,2,3,4,58,7,6,
{8}15,26,37,48,1b-5[8:1],,1,2,,3V51[8:3],,8,8,,6,6,,25,25,,
34,34,{16}3,4,2,,6,5,6,5,7,5,6,,1,8,3,6,2,7,4,5,{24}1,2,3,8,7,6,2,3,4,7,6,5,
{16}1b-4[8:1],,1,,5-8[8:1],,5,,2-5[8:1],,2,,6-1[8:1],,6,,3-8[8:1],,3,,7-4[8:1],,7,,2-7[8:1]*-5[8:1],,,,2q5[2:1],,,,2b,,,,6,,7,,8,,1,,2,,8,7,6,,1,,7,6,5,,8^3[8:1],,5^8[8:1],,8,,5,,
4,,3,4,1,,7,8,6,1,6,1,5,2,5,2,6,4,6,4,7,3,7,3,6,6,2,2,5b,5,1b,1,,4,3,2,1,8,7,,1,2,3,4,5,6,,,1,7,2,8,4,6,4,6,3,5,2,4,1,7,8,6,1,2,3,4,5,6,7,8,15,4,3,2,1,8,7,6,52,3,4,5,6,7,8,1,26,5,4,3,2,1,8,7,3,5,3,5,4,6,4,6,2-5[8:1],,35,,2,,7-3[8:1],,
68,,7,,1,2,4,5,6-1[8:1],,2-5[8:1],,6,,2,,7b,8,6,2b,4,3,7b,5,6,4b,5,3,8h[4:1],,,,
{24}1,2,3,4,5,6,1,2,3,4,5,6,2-6[12:1],1,2,1,2,1,2b,,,,,,
{16}7b,,,3b,,,5b,,,1b,,,{48}2b/6b,37,,,,,,,,,,,
{16}4,6,4,6,2,8,2,8,3,5,3,5,1,7,1,7,
{48}2b,3,,,,,,,,6b,5,,,,,,,,3b,4,,,,,,,,7b,6,,,,,,,,{32}1b/8b,,,,,,,,
{32}1b,2,3,,,,7b,6,5,,,,2b,3,4,,,,8b,7,6,,,,
{16}1,5,1,5,
{32}2b,3,4,,,,8b,7,6,,,,1b,2,3,,,,7b,6,5,,,,3,,4,,3,,4,,{32}2b,1,8,7,6,5,4,3,2,,,,,6/3b,4,5,6,,,,,,,,7b/6b,58,14,2<3[1:5]/3<2[1:5]
,
