&title=百花繚乱花吹雪
&artist=白上フブキ,百鬼あやめ,大神ミオ
&first=0.63
&des=Ragna
&wholebpm=175
&demo_seek=50.6
&demo_len=27.2
&des_5=Ragna
&lv_5=13+
&inote_5=(175)
{1}3h[8:9]/5h[8:9],
{8},,,56,,78,78,,
2h[4:1]/1,,4,5h[4:1]/3,,8,,5p2[32:11]/6pp1[32:11],
,,,,,3b/8b,3b/8b,,
7h[8:1],{16}5,6,{8}4,5^8[8:1],,1,1,2h[4:1],
,{16}4,3,{8}5,4V61[4:1],6-8[8:1],,,,
2,2,6,6,45,3,2,1s5[4:1]/8z4[4:1],
,,,,3b/6b,,3b/6b,,
78,5,12,4,78,5,12,4,
78,5,12,4,78,5,12,4,
5h[4:1]/6h[4:1],,,18,,27,36,4qq1[32:11]/5pp8[32:11],
,,,,,2b/7b,2b/7b,,
46,4h[4:3]/6h[4:3],,,,,,,
,24,2h[8:5]/4,,,,,7,
7h[1:1]/8,,1,,2,,3,,
4,4qq1[32:11]/7qq4[32:11],,47,,,,,
2h[4:1]/5h[4:1],,,6h[4:1]/4h[4:1],,,78,,
1h[4:1]/2h[4:1],,,3V57[8:1]/4V68[8:1],,34,,,
12,3,4,5,36,4,5,6,
78,{16},12,{8},3V51[4:1]/5,,8b,8b,,
27,6,5,4,36,5,4,3s7[4:1]/6z2[4:1],
,36,,,,1,2,4/3h[4:1],
,8,7,5/6h[4:1],,1,2,3qq5[16:5]/4,
,5,6,7h[8:3],,,1,8,
2h[16:3],{16},3h[16:3],{8},4-8[8:1],,,7,7,
65,4,65,7,8-4[8:1]/1,,,2,
2qq5[32:11],,,5,6,7h[4:1],,2,
18,1-4[8:1]/8-5[8:1],,18,,36,36,,
1V35[4:1],,5,,8V64[4:1],,4pp4[16:5],,
1,,,1,1,5,36,,
2^4[8:1]/4,,5,,7^5[8:1]/5,,4,,
23,{16},18,{8},76,4/5h[4:1],{24}4,3,2,{8}1,,
78,7,12,2,78,6,12,3,
17,7,28,2,86,7,13,2,
18,1-7[8:1]/8-2[8:1],,1-5[8:1]/8-4[8:1],,1-6[8:1]/8-3[8:1],,1b/8b,
,45,45,36,36,27,27,18,
,,,,4-8[8:1]/5-1[8:1],,,{128},,,,,,,,{16},{8}
2b-5[8:1],2,6-1[8:1],6,4,3,,8^2[8:1],
7,6,,5^3[8:1],6,7,8,1,
2h[4:1]/7,,8,36,,4pp1[8:3]/5qq8[8:3],,45,
,,,,2b/7b,,2b/7b,,
1^4[8:1]/5,6,7,8,1^4[8:1]/5,6,7,8,
1^4[8:1]/5,6,7,8,1^4[8:1]/5,6,7,8,
2q6[4:1]/1,,6q2[4:1],,2>6[4:1],,6<2[4:1],7,
8h[8:3],,,3V51[4:1],,,8b,,
7-4[8:1],7,3-8[8:1],3,5,6,,1^7[8:1],
2,3,,4^6[8:1],3,2,1,8,
7h[4:1]/2,,1,63,,4>5[2:1]/5<4[2:1],,45,
,,,,,,36,36,
17,{16},24,,,65,,7^4[8:1]/4,,,,74,,3,,
21,,,87,{8},6V48[4:1]/4,,1b,1b,,
27,3,4,5,63,4,5,6,
78,12,34,56,7h[4:1]/8,{24}8,1,2,{8}3,,
4p1[4:3]/6qq8[4:3],,,,,,,,
,,,27,,35,35,,
6h[4:1]/5,,8,1h[4:1]/7,,5,,3qq8[32:11]/4q7[32:11],
,,,,,1b/6b,1b/6b,,
28,2V84[4:5]/8s4[4:5],,,,,,,
,,,,,,,,
35,5/3h[4:1],,8h[4:1],,4h[8:1],6h[8:1],5h[8:1],
7,18,2,18,7,18,18,,
36,36,7,7h[8:1],{16}5,4,{8}3,6,6h[8:1],
{16}1,2,{8}3,5,5h[8:1],{16}4,3,{8}2,18,,
75,6,24,3,45,36,27,18,
,2h[8:1],3h[8:1],4h[8:1],5h[8:1],6h[8:1],7h[8:1],8h[8:1],
1b^6[8:1],2,1,3,5,4,{16}6,5,{8}7h[4:1],
,1,{16}8,2,{8}1,3^8[8:1],4,3,5h[4:1],
,1,24,3,64,7,35,2,
1s5[8:1]/8z4[8:1],,,,3b/6b,,3b/6b,,
65,8,34,1,65,8,34,1,
65,8,34,1,65,8,34,1,
78,6,5,4,18,2,3,4qq1[32:11]/5pp8[32:11],
,,,,,2b/7b,2b/7b,,
{1}3V16[4:5]/6s2[4:5],,6V83[4:5]/3z7[4:5],,
3V16[4:5]/6z2[4:5],,6V83[4:5]/3s7[4:5],,
4V27[8:5],5<4[2:1],
{8}3^8[8:1]/5,,4,,6^1[8:1]/4,,5,,
24,{16},45,{8},67,1/8h[4:1],{24}1,2,3,{8}4,,
56,6,34,3,56,7,34,2,
46,6,35,3,75,6,24,3,
45,4-6[8:1]/5-3[8:1],,4-8[8:1]/5-1[8:1],,4-7[8:1]/5-2[8:1],,4b/5b,
,18,18,27,27,36,36,45,
,,,,,,,,
{128}7h[128:1],2qq7[8:5],,,,,,,{16},{8},,,,,,,
6^3[8:1],,,,1b-5[8:1]/8b-4[8:1],,,,
3-6[8:1]/6,,36,7,,1qq5[8:3]/8pp4[8:3],,18,
,,,,3b/6b,,3b/6b,,
6^1[8:1]/2,3,4,5,6^1[8:1]/2,3,4,5,
6^1[8:1]/2,3,4,5,6^1[8:1]/2,3,4,5,
8>4[4:1]/4,,4<8[4:1],,8qq4[32:11],,1,2,
3h[8:3],,,5V38[4:1],,,1b,,
2-6[8:1],2,7-3[8:1],7,4^1[8:1],4,,5-1[8:1],
6,7,,5qq3[8:1],6,7,8,1,
2-7[8:1]/7,,27,6,,4>5[2:1]/5<4[2:1],,45,
,,,,,,36,36,
28,{16},75,,,34,,2^5[8:1]/5,,,,25,,6,,
78,,,12,{8},3V51[4:1]/5,,8b,8b,,
74,6,25,3,74,6,25,3,
46,71,24,57,2h[4:1]/1,{24}1,8,7,{8}6,,
3V51[4:3]/5qq8[4:3],,,,,,,,
,,,27,,64,64,,
3h[4:1]/4,,1,8h[4:1]/2,,4,,6pp1[32:11]/5p2[32:11],
,,,,,3b/8b,3b/8b,3qq8[32:11]/4q7[32:11],
,,,,,1b/6b,1b/6b,5/4h[4:1],
,1,28,7,6h[4:1]/5,,3,2/4qq3[4:1]*pp5[4:1],
,,,,,,7b/1b,,
E
