&title=チョウの標本
&artist=Process 2.3.1.
&first=0
&des=Kurage
&lv_5=14
&inote_5=(170)
{1},
{1}1-5[16:23],,,,
{1}1v2>3v4[4:13]*v8<7v6[4:13],,,,
{16}
54,,5,,46,,3,4,3,4,2,,15,,7,,
6,5,6,,73,,4,5,3,4,3,5,1h[8:1],,7,1,
5,,5,,46,,3,4,3,4,2,,15,,7,,
65,,7,8,7,,2,1,2,1,3,5,1h[8:1],,7,6,
45,,4,,53,,6,5,6,5,7,,84,,2,,
3,4,3,,26,,5,4,6,5,6,4,8h[8:1],,2,8,
4,,35,,6,5,7,,26,,8,4,6,,17,,
4,,,,4h[16:3],,,6,2,,3,4,2,,15,,
7<5-1[4:1],,8,,1>3-7[4:1],,3,,4,,4,,5-8[8:1],,6,4,
5,,2,,37,,5,4,6,5,6,4,8h[8:1],,2,8,
4,,4,5,3,,{24}14,25,36,{16}47,,8,,26,,4,,
35,,2,1,2,,7,8,7,3,5,4,6,,15,,
7<5-1[4:1],,8,,1>3-7[4:1],,3,,4,,4,,5-8[8:1],,6,4,
5,,2,,37,,5,4,6,5,6,4,8h[8:1],,2,8,
4,,4,5,3,,6,5,7,5,6,4,8h[8:1],,2,8,
4,,4,,35,,6,5,6,5,7,,48,,6,6,
2>4-8[4:1],,1,,8<6-2[4:1],,6,,5,,5,,4-1[8:1],,3,5,
4,,7,,62,,4,5,3,4,3,5,1h[8:1],,7,1,
5,,5,4,6,,{24}85,74,63,{16}52,,1,,73,,5,,
64,,7,8,7,,2,1,2,6,4,5,3,,84,,
2>4-8[4:1],,1,,8<6-2[4:1],,6,,5,,5,,4-1[8:1],,3,5,
4,,7,,62,,4,5,3,4,3,5,1h[8:1],,7,1,
5,,46,,3,4,2,6,5,6,2,4,3,8,1,7h[16:15],
{8}5h[8:1],,5h[8:1],,3h[8:1],,4,3h[8:1],
{16}
6-4[8:1],5,7,,1,,8-4[8:1],7,1,,6,,5-8[8:1],2,6,,
4,,2-6[8:1],1,3,,6,,8-5[8:1]*-3[8:1],,71,,8,,,,
2-4[8:1],1,3,,8,,6-1[8:1],5,7,,1,,2-6[8:1],4,3,,
6,,8-5[8:1],1,7,,3,,4w8[8:1],,26,,4,,,,
3-5[8:1],4,2,,8,,1-5[8:1],2,8,,3,,4-1[8:1],7,3,,
5,,7-3[8:1],8,6,,3,,1-4[8:1]*-6[8:1],,28,,1,,,,
7-5[8:1],8,6,,1,,3-8[8:1],4,2,,8,,7-3[8:1],5,6,,
3,,1-4[8:1],8,2,,6,,5w1[8:1],,37,,5,,,,
6pp5[16:5],5,7,,1,,3,,3-6[8:1],,2,4,3,,8,,
5-3[8:1]/7-5[8:1],,4,,5-1[8:1]/7,,,,1,,2,,3-1[8:1]/7-5[8:1],,8,,
7-3[8:1]/3,,,,3-5[8:1],,1,,1-4[8:1],,2,6,1,,8,,
3-6[8:1]/7-2[8:1],,4,,37,,,,8/4w8[8:1],,,,4,,,,
3qq4[16:5],4,2,,8,,6,,6-3[8:1],,7,5,6,,1,,
4-6[8:1]/2-4[8:1],,5,,4-8[8:1]/2,,,,8,,7,,6-8[8:1]/2-4[8:1],,1,,
2-6[8:1]/6,,,,6-4[8:1],,8,,8-5[8:1],,7,3,8,,1,,
6-3[8:1]/2-7[8:1],,5,,62,,,,{32}18,2,3,4,5,6,7,8,1,2,3,4,5,6,7,8,
{1}1-5[16:23],,,,
{1}1bv2>3v4[4:15]*v8<7v6[4:15],,,,
(109.93)
{1},,,,,,,,,,
(170)
{8}
3h[8:3],,,4h[8:3],,,5h[8:3],,,6h[8:3],,,5,,7,,
8h[8:3],,,6h[8:3],,,4h[8:3],,,2h[8:3],,,4,,3,,
6h[8:3],,,5h[8:3],,,4h[8:3],,,3h[8:3],,,4,,2,,
1h[8:3],,,3h[8:3],,,5h[8:3],,,7h[8:3],,,5w1[8:1],,,,
{16}
4>1[8:1]/3,,5,4,6-4[8:1],,7,8,6-2[8:1],,2-8[8:1],,6,,4-1[8:1],,
3,,46,,7-3[8:1],,3,7,1-6[8:1]*-4[8:1],,2,,1,,,,
5-1[8:1]/3,,6,5,7-4[8:1],,8,2,7-3[8:1],,1-4[8:1],,7,,1,,
5>2[8:1],,6,5,8-6[8:1],,7,,4w8[8:1]/8,,3,,4,,,,
5<8[8:1]/6,,4,5,3-5[8:1],,2,1,3-7[8:1],,7-1[8:1],,3,,5-8[8:1],,
6,,53,,2-6[8:1],,6,2,8-3[8:1]*-5[8:1],,7,,8,,,,
4-8[8:1]/6,,3,4,2-5[8:1],,1,7,2-6[8:1],,8-5[8:1],,2,,8,,
4<7[8:1],,3,4,1-3[8:1],,2,,5w1[8:1]/1,,6,,5,,,,
4>1[8:1]/3,,5,4,6-4[8:1],,7,8,6-2[8:1],,2-5[8:1],,6,,1<6[8:1],,
8,,17,,5-8[8:1],,4,5,2-6[8:1]*-5[8:1],,1,,2,,,,
7/8-6[8:1],,1,8,2-4[8:1],,1,5,2-6[8:1],,7-1[8:1],,2,,7,,
4-1[8:1]*-7[8:1],,35,,4,,,,{32}2-6[8:1]/8-4[8:1],3,4,5,6,7,8,1,{16}2,,,,
5<8[8:1]/7,,4,5,3-5[8:1],,2,1,3-7[8:1],,7-4[8:1],,3,,8>3[8:1],,
1,,82,,4-1[8:1],,5,4,7-3[8:1]*-4[8:1],,8,,7,,,,
2/1-3[8:1],,8,1,7-5[8:1],,8,4,7-3[8:1],,2-8[8:1],,7,,2,,
5-8[8:1]*-2[8:1],,64,,5,,,,{32}7-3[8:1]/1-5[8:1],6,5,4,3,2,1,8,{16}7,,,,
{8}2h[8:7],,4h[8:1],,6h[8:1],,5,6h[8:1],4,6h[8:1],5-3[8:1],5,7,,8,1h[8:1],
{8}7h[8:7],,5h[8:1],,3h[8:1],,4,3h[8:1],5,3h[8:1],4-6[8:1],4,2,,1,8h[8:1],
{8}2-7[4:1],,,3-6[4:2],,,2-7[4:1],,,,,,4-1[8:1]/5-8[8:1],,,,
{8}6-3[4:1],,,7-2[4:2],,,6-3[4:1],,,,,,8-5[8:1]/1-4[8:1],,,,
{4},,1v2>3v4[4:13]*v8<7v6[4:13],,,,,,,,,,,,,,,,E5,
