&title=Hazy Lazy Doll
&artist=山下七海
&first=0.03
&des=4_lower
&lv_5=13
&inote_5=(128)
{8},,,,,
{4}
4h[4:1],,5h[4:1],,3h[4:1],,6h[4:1],,4h[4:1],,5h[4:1],,3,3,6,6,
4h[4:1],D7,5h[4:1],D3,3h[4:1],A1,6h[4:1],A8,
{8}
1,1,8,8,1,1w5[4:1],,1,,,,4,4-8[8:1],,4b,,
{8}
6h[8:3]/1,2,3,4,,8/3h[4:1],7,6,,2/6h[8:1],3,{16}4x,5x,4x,,{8}6,7,8,
6h[8:3]/1,2,3,4,,7,6,{16}5x,4x,5x,,{8}4,3,2,1/6,,3/8,,
6h[8:3]/1,2,3,4,,8/3h[4:1],7,6,,2/6h[8:1],3,{16}4x,5x,4x,,{8}6,7,8,
2/1,8,7/3,4,6/5,7,8/4,3,
{24}
7,,1,8,,2,7,,3,6,,4,5-8[8:1],,3,6,,4,5,,,,,,
{8}
3/7-5[8:1],,2,,1,1,2/7,,3/7-5[8:1],,2,,1h[8:1],,1h[8:1],,
3/7-5[8:1],,2,,1,1,2/7,,3/7-5[8:1],,2,,1,1,1,,
6/2-4[8:1],,7,,8,8,7/2,,6/2-4[8:1],,7,,8h[8:1],,8h[8:1],,
{24}
3,,5,4,,6,3,,7,2,,8,1-4[8:1],,7,2,,8,1,,,,,,
7,,2,8,,1,7,,2,8,,1,2b-4[12:1]/7b-5[12:1],,,3b/6b,,,2b/7b,,,,,,
{8}
8qq5[8:5],,1h[8:1],,2h[8:1],,3h[8:1],,4x,2x,5x,7x,3h[4:1],B2/B3,B2/B3,,
5pp8[8:5],,4h[8:1],,3h[8:1],,2h[8:1],,1/7,3/5,2/8,4/6,{24}1,,7,2,,8,1,,7,2,,,
{8}
1pp4[8:5],,8h[8:1],,7h[8:1],,6h[8:1],,5x,7x,4x,2x,6h[4:1],B7/B6,B7/B6,,
1,1,8,8,2,2,7,7,{16}3,6,4,5,3p6[4:1],6,4,,,,,,Cf,,,,
{16}
7<5[8:1],,,8,7,,8,,8p4[8:1],,,1,8,,1,,
1>4[8:1],,,,1<6[8:1],,,,1-5[8:1],,,,1,,,,
7<5[8:1],,,8,7,,8,,8p4[8:1],,,1,8,,1,,2-6[8:1],,2,,7-4[8:1],,7,,3-8[8:1],,3,,,,,,
7<5[8:1],,,8,7,,8,,8p4[8:1],,,1,8,,1,,
1>4[8:1],,,,1<6[8:1],,,,1,,,,
4qq4[4:1],,,,4pp4[4:1]>7[4:1],,,,,,,,,,,,,,
5p5[4:1]*q5[4:1],,,,5V31[4:1]*V71[4:1],,,,,,,,,,Cf,,,,
2>4[8:1],,,1,2,,1,,1q5[8:1],,,8,1,,8,,
8<5[8:1],,,,8>3[8:1],,,,8-4[8:1],,,,8,,,,
2>4[8:1],,,1,2,,1,,1q5[8:1],,,8,1,,8,,7-3[8:1],,7,,2-5[8:1],,2,,6-1[8:1],,6,,,,3,,
2b-4[8:1],,,,,,6,,7b-5[8:1],,,,,,2,,1b-5[8:1],,,,,,7,,8b-4[8:1],,,,3,,2,,
1,,1,,8,,8,,2,,2,,7,,7,,
{24}
3,,5,4,,6,3,,7,2-6-4b[16:3]*-6-8b[16:3],,8,1,,,2xb,,,,,,,,,
{8}
3h[8:3]/8,7,6,5,,1/6h[4:1],2,3,,7/3h[8:1],6,{16}5x,4x,5x,,{8}3,2,1,
3h[8:3]/8,7,6,5,,2,3,{16}4x,5x,4x,,{8}5,6,7,8b-6[12:1]/3b-5[12:1],,3b/8b,,
3h[8:3]/8,7,6,5,,1/6h[4:1],2,3,,7/3h[8:1],6,{16}5x,4x,5x,,{8}3,2,1,
7/8,1,2/6,5,3/4,2,1/5,6,
{24}
2,,8,1,,7,2,,6,3,,5,4-1[8:1],,6,3,,5,4,,,,,,
{8}
6/2-4[8:1],6,7,,8,8,7/2,,6/2-4[8:1],6,7,,3h[8:1]/8h[8:1],,1h[8:1]/6h[8:1],,
6/2-4[8:1],6,7,,8,8,7/2,,6/2-4[8:1],6,7,,8,3/7,2/6,,
3/7-5[8:1],3,2,{16}1,1,,8,8,,{8}2/7,,3/7-5[8:1],3,2,2,1h[8:1]/6h[8:1],,3h[8:1]/8h[8:1],,
{24}
6,,4,5,,3,6,,2,7,,1,8-5[8:1],,2,7,,1,8,,,,,,
2,,7,1,,8,2,,7,1,,8,7b-4[12:1]/2b-5[12:1],,,6b/3b,,,7b/2b,,,,,,
{8}
1pp4[8:5],,8h[8:1],,7h[8:1],,6h[8:1],,5x,7x,4x,2x,6h[4:1],B7/B6,B7/B6,,
4qq1[8:5],,5h[8:1],,6h[8:1],,7h[8:1],,8/2,6/4,7/1,5/3,{24}8,,2,7,,1,8,,2,7,,,
{8}
8qq5[8:5],,1h[8:1],,2h[8:1],,3h[8:1],,4x,2x,5x,7x,3h[4:1],B2/B3,B2/B3,,
8,8,1,1,7,7,2,2,{16}6,3,5,4,6<3[4:1],3,5,,,,,,Cf,,,,
{16}
2-4[8:1],,,1,2,,1,,1-5[8:1],,,8,1,,8,,
8-6[8:1],,1,,2-4[8:1],,1,,5-1[8:1],,,,5,,,,
2-4[8:1],,,1,2,,1,,1-5[8:1],,,8,1,,8,,
7-3[8:1],,6,,2-5[8:1],,1,,6-1[8:1],,7,,,,,,
2-4[8:1],,,1,2,,1,,1-5[8:1],,,8,1,,8,,
8-6[8:1],,1,,2-4[8:1],,1,,5,,,,
4/6,,3/7,,2-5[8:1]/8,,,,2/8p5[16:5],,,,2/8,,,,,,
4-2[8:1]*-1[8:1],,,,4-6-1[4:1]*-7-1[4:1],,,,4,,,,,,Cf,,,,
7-5[8:1],,,8,7,,8,,8-4[8:1],,,1,8,,1,,
1-3[8:1],,8,,7-5[8:1],,8,,4-8[8:1],,,,4,,,,
7-5[8:1],,,8,7,,8,,8-4[8:1],,,1,8,,1,,
2-6[8:1],,3,,7-4[8:1],,8,,3-8[8:1],,2,,,,
{8}5-3[8:1],6bh[4:1],,,4-6[8:1],3bh[4:1],,,8-4[8:1],6bh[4:1],,,1-5[8:1],3bh[4:1],,,,
{16}
4,,4,,5,,5,,3,,3,,6,,6,,
{24}
2,,8,1,,7,2,,6,3,,5,4w8b[8:1],,,,,,4b,,,,,,
{16}
6x,,2,4,3,,7,5,6h[8:1],,3,,3x,,7,5,6,,2,4,3h[8:1],,6,,2h[8:1],,4,,7h[8:1],,5,,
2,,2,,7,,7,,1,,1,,8,,8,,
{24}
1,,7,2,,6,3,,5,4b,,,5-8[12:1],,,,,,,,,,,,
{8}1>5[16:3],,5,7,1<5[16:3],,5,3,1,
{16}Ch[8:1],,,,A2,A3,,E1,,A7,A6,,C,,
{8}8V64[8:1],,4,2,8V24[8:1],,4,6,
{16},B2/B3/E3,,A7,A6,,A2,A3,,B6/B7/E7,,C,E5,,,,
{8}8<4[16:3],,4,2,8>4[16:3],,4,6,8,
{16}Ch[8:1],,,,A7,A6,,E1,,A2,A3,,C,,
{8}1V35[8:1],,5,7,1V75[8:1],,5,3,
{16},B7/B6/E7,,A2,A3,,A7,A6,,B3/B2/E3,,C,E5,,,,
{4}
3h[4:1],A8,6h[4:1],A1,3,3,6,6,3h[4:1],A8,6h[4:1],A1,B3,B4,B5,B6,
3h[4:1],A8,6h[4:1],A1,3,3,6,6,
4/5,4q1[16:5]/5p8[16:5],4/5,,
{24}
1,,8,1,,7,2,,6,3,,5,4-1[12:1],,6,3,,5,4b,,,,,,
{16}
7<4[16:3],,,1,7,,1,,1p5[8:1],,,3,1,,3,,
3>1[8:1],,7,,3<5[8:1],,7,7,3-6[8:1]*-8[8:1],,,,,,,,
2>5[16:3],,,8,2,,8,,8q4[8:1],,,6,8,,6,,
3x/6-8[8:1],,5,,3V15[4:1]/6,,4,,3/6,,,,,,
7-5[8:1]/8,,7hb[4:1]/8b,,,,,,2-4[8:1]/1,,2hb[4:1]/1b,,,,,,
7/8-4[8:1],,1b/8hb[4:1],,,,,,2/1-5[8:1],,8b/1hb[4:1],,,,,,,,
2,,2,,7,,7,,3,,3,,6,,6,,
{24}
4,,6,3,,7,2,,8,1,,,C,,E2,E8,,E3,E7,,E4,E6,,,
{8}
6x/1x,2,3,4,,8/3h[4:1],7,6,,2/6h[8:1],3,{16}4x,5x,4x,,{8}6,7,8,
6h[8:3]/1,2,3,4,,7,6,{16}5x,4x,5x,,{8}4,3,2,1/6,,3/8,,
6h[8:3]/1,2,3,4,,8/3h[4:1],7,6,,2/6h[8:1],3,{16}4x,5x,4x,,{8}6,7,8,
2/1,8,7/3,4,6/5,7,8/4,3,
{24}
7,,1,8,,2,7,,3,6,,4,5,,3,6,,4,5,,,,,,
