&title=みかげ日記
&artist=はるまきごはん
&first=0.5
&des=暮呓
&des_4=暮呓
&lv_4=8
&inote_4=(120)
{4}8xV24[4:20]*V64[4:20],,,
{4},,,
{4},,,
{4},,,
{4},,,
{4},,,
{4},,,
{4},,,
{8}E7/E3,,B7,C,B3,,
{8},,B2,C,B6,,
{4}E8/E2,E6/E4,,
{4},,,
{8}E7/E3,,B2,C,B6,,
{8},,B7,C,B3,,
{4}E8/E2,E6/E4,,
{4},,,
{8}E7/E3,,B8,C,B4,,
{8},,B1,C,B5,,
{4}E8/E4,E6/E2,,
{4}Ch[4:2],,,
{8}E7/E3,,B1,C,B5,,
{8},,B8,C,B4,,
{4}3b/6b,,,
{4},,,
{4},,,
{4}6-3[4:1],6,,
{4}2^7[4:1],2,,
{4}3-8[4:2]/6-1[4:2],3/6,,
{4},,,
{4}7^5[4:1],7,,
{4}2^4[4:1],2,,
{4}1-5[4:2]/8-4[4:2],1/8,,
{4},,,
{4}1v3[4:1],1,,
{4}8v6[4:1],8,,
{4}4>5[4:2]/5<4[4:2],4/5,,
{4},,6z2[4:9],
{4}6b,,,
{4},,,
{4},,,
{4},,,
{4}8h[4:2]/1,2,3,
{4}1h[4:2]/8,7,6,
{4}5h[4:2]/4,3,2,
{4}4h[4:2]/5,6,7,
{4}8^5[4:1],,,
{4}1^4[4:1],,,
{4}8-5[4:1],,,
{4}1-4[4:1],,,
{4}1/2,3/4,5/6,
{4}8/7,5/6,4/3,
{4}2/1,3/4,5/6,
{4}C,,,
{4}8/7,6/5,4/3,
{4}2/1,3/4,5/6,
{4}7/8,6/5,4/3,
{4}C,,,
{4}3/4,1/2,8/7,
{4}6/5,7/8,1/2,
{4}3/4,1/2,7/8,
{4}C,,,
{4}5/6,7/8,1/2,
{4}3/4,1/2,7/8,
{4}Ch[4:3],,,
{4},,,
{4}5q2[4:1],5,,
{4}4p7[4:1],4,,
{4}2-5[4:2]/7-4[4:2],2/7,,
{4},,,
{4}1-5[4:1],1,,
{4}8-4[4:1],8,,
{4}7p6[4:2]/2q3[4:2],7/2,,
{4},,,
{4}6-3[4:1],6,,
{4}2-7[4:1],2,,
{4}2-6[4:2]/7-3[4:2],2/7,,
{4},,4p5[4:9]/5q4[4:9],
{4}5b/4b,,,
{4},,,
{4},,,
{4},,,
{4}1h[8:1]/3h[8:1],2h[8:1]/5h[8:1],4h[8:1]/6h[8:1],
{4}7h[8:1]/8h[8:1],5h[8:1]/3h[8:1],1h[8:1]/6h[8:1],
{4}4h[8:1]/2h[8:1],7h[8:1]/1h[8:1],3h[8:1]/8h[8:1],
{4}Ch[4:1],,,
{4}8h[8:1]/6h[8:1],7h[8:1]/4h[8:1],5h[8:1]/3h[8:1],
{4}2h[8:1]/1h[8:1],4h[8:1]/6h[8:1],8h[8:1]/3h[8:1],
{4}5h[8:1]/7h[8:1],2h[8:1]/8h[8:1],6h[8:1]/1h[8:1],
{4}Ch[4:1],,,
{4}5h[8:1]/7h[8:1],6h[8:1]/1h[8:1],8h[8:1]/2h[8:1],
{4}3h[8:1]/4h[8:1],1h[8:1]/7h[8:1],5h[8:1]/2h[8:1],
{4}8h[8:1]/6h[8:1],3h[8:1]/5h[8:1],7h[8:1]/4h[8:1],
{4}Ch[4:1],,,
{4}B8,C,B4,
{4}B1,C,B5,
{4}B7,C,B3,
{4}B2,C,B6,
{4}8^5[4:1],,,
{4}1^4[4:1],,,
{4}5V73[4:5]/3V15[4:5],,,
{4},,,
{4},,,
{4}Ch[4:3],,,
{4},,,
{4},,,
{4}6-3[4:1],6,,
{4}2^7[4:1],2,,
{4}3-8[4:2]/6-1[4:2],3/6,,
{4},,,
{4}6p5[4:1],6,,
{4}3q4[4:1],3,,
{4}8qq5[4:2]/1pp4[4:2],8/1,,
{4},,,
{4}3p6[4:1],3,,
{4}7^2[4:1],7,,
{4}8p4[4:2]*q4[4:2],8,,
{4},,5pp5[4:9]*qq5[4:9],
{4}5b,,,
{4},,,
{4},,,
{4},,,
{4}3-1[4:1],3,,
{4}6-8[4:1],6,,
{4}1-5[4:2]/7-3[4:2],1/7,,
{4},,,
{4}5p4[4:1],5,,
{4}2^7[4:1],2,,
{4}7p3[4:2]*q3[4:2],7,,
{4},,,
{4}1V35[4:1],1,,
{4}8V64[4:1],8,,
{4}3V14[4:2]/6V85[4:2],3/6,,
{4},,1V75[4:9]*V35[4:9],
{4}1b,,,
{4},,,
{4},,,
{4},,,
{4}Ch[4:9],,,
{4},,,
E
