&title=夜桜吹雪
&artist=A.SAKA
&first=0
&des=albertoBradish
&des_5=albertoBradish
&lv_5=14
&inote_5=(172){4},,,,,,,,{1}1pp5[4:3],
8qq4[4:3],
2qq5[4:3],
7pp4[4:3],
{4}1>4[4:1],4<7[4:1],7>2[4:1],2,
7<4[4:1],4>1[4:1],1<6[4:1],6,
5>1[2:1],6,7,8,
1<5[2:1],2,3,4,
{8}2/1<6[8:1],3,{4}4,{8}5,4,3,2,
7/8>3[8:1],6,{4}5,{8}4,5,6,7,
4/1-6[8:1],3,{4}2,{8}4,3,2,1,
5/8-3[8:1],6,{4}7,{8}1,8,7,6,
5b/4b,3,2h[8:1],8,2h[8:1],7,2h[8:1],6,
5/8,6,7h[8:1],1,7h[8:1],2,7h[8:1],3,
8/7,6,1/2,3,{16}5,4,5,4,5,4,5,4,
{4}8b,{16}3,4,{8}1b,{16},,6,5,{4}8b,
{8}3/7,8,1,{16}2-5[8:1],1,,1,{8}2,8,7,
6/2,1,8,{16}7-4[8:1],8,,8,{8}7,1,2,
3/7,8,1,{16}2v5[8:1],1,,1,{8}2,8,7,
6/2,{16}3,4,{8}2,{16}6,5,{8}7,8,{24}1,2,1,2,,,{8}6/2,
1,8,{16}7-4[8:1],8,,8,{8}7,1,2,
3/7,8,1,{16}2-5[8:1],1,,1,{8}2,8,7,
6/2,1,8,{16}7v4[8:1],8,,8,{8}7,1,2,
3/7,{16}6,5,{8}7,{16}3,4,{8}2,1,{24}8,7,8,7,,,{8}6/1,
7/2,3/8,{16}1,2,,2,{8}1,3/8,5/6,
3/8,2/7,6/1,{16}8,7,,7,{8}8,6/1,4/3,
6/1,7/2,3/8,{16}1,2,,2,{8}1,3/8,5/6,
6/1,7/2,3/8,{16}1,2,,2,{8}1,{24}3/8,7,6,5,,,{8}2/1,
8/4,1/2,{16}1p5[8:1],2,,2,{8}1,3,1,
7/8,1/5,8/7,{16}8q4[8:1],7,,7,{8}8,6,8,
2/1,8/4,1/2,{16}1p5[8:1],2,,2,{8}1,3,1,
7/8,1/5,8/7,{16}8,7,,7,{8}8,{24}8,1/7,2/6,3/5,,,{8}8b,
,,8>3[4:1],,,,,1<6[4:1],
,,5>2[4:1],,,,,6v1[4:1],
,,2v5[4:1],,,,,8>3[4:1],
,,4<7[4:1],,,,,3h[4:1],
7,8,1/3h[8:3],,1,8,3/7,
6h[4:1],2,1,8/6h[4:1],,8,6/1,6/2,
{16}3,7,4,8,5,1,5,1,5,1,5,1,{32}5,6,7,8,1,2,3,4,
{4}1b/5b,{8}7,6b/1b,,2,{4}3b/8b,
{8}4b/6b,{16}6,5,{8}6,{16}6,5,{8}6-4[8:1],5,{4}6,
{8}5/3,{16}3,4,{8}3,{16}3,4,{8}3-1[8:1],4,{4}3,
{8}1/7,{16}7,8,{8}7,{16}7,8,{8}7-1[8:1],8,{4}7,
{8}8/2,{16}2,1,{8}2,{16}2,1,{8}2-4[8:1],1,{4}2,
{8}5/1b,{16}5,4,{8}5,5,6/1b,{16}6,4,{8}6,6,
1b/7,{16}7,4,{8}7,8/1b,,1,2/8,3/7,
4/6,{16}4,5,{8}4,{16}4,6,{8}4,{16}4,7,{8}4,4/8,
{1}4qq8[8:5]/8qq4[8:5],
{4}2-5[8:1],{16}2/6,,,7V13[16:3],,,,,{8}5,6,
{4}7-4[8:1],{16}7/3,,,2V86[16:3],,,,,{8}4,3,
{4}5/4qq1[8:5],{8}6,7,{4}8,8,
{8}8>6[4:1]*q6[4:1],7,{4}8,{8},7,8,1,
{4}2-6[8:1],{16}2/6,,,7>3[16:3],,,,,{8}5,6,
{4}7-3[8:1],{16}7/3,,,2<6[16:3],,,{8}3,4,5,
5,{16}6,5,{8}8,8h[8:1],5,8h[8:1],6,8,
4,{16}3,4,{8}1,1h[8:1],4,1h[8:1],3,1,
{4}2-6[8:1],2/1-5[8:1],1/8-4[8:1],8/7pp4[4:3],
{8}7b/5b,,,2,,,{4}3h[8:1],
{8}1-5[8:1],8,1/3-8[8:1],2,{4}3<6[8:1],{8}3,7,
8-4[8:1],7,{4}8/4,{8}1/3,{24}8,7,6,{8}5,3/4,
2/1-5[8:1],1,1/8-4[8:1],8,{4}8>3[8:1],8<3[4:1],
{8}8h[4:1],{16},,,,8,3,7,2,6,1,{8}5,7/8,
8-4[8:1],1,8/6-1[8:1],7,{4}6>3[8:1],{8}6,2,
1-5[8:1],2,{4}1/5,{8}8/6,{24}1,2,3,{8}4,6/5,
6/5qq2[8:5],{16},,,,1,8,{8}7,6,7,8,
1,{16}2,8,2,6,2,7,1,5,3,6,4,8,2,7,
{8}1b-5[8:1],2,1/6-8[8:1],7,{4}6>3[8:1],{8}1/6-8[8:1],2,
6/1-5[8:1],2,{4}1>4[8:1],{8}1,{24}5,6,7,{8}8-4[8:1],1,
8/4,{16},,,,2,1,{8}3,4/5,6/8,1/3,
{2}3bqq4[8:5]/1b<6[8:1],4<7[8:1],
{8}8-4[8:1],7,8/3-1[8:1],2,{4}3<6[8:1],{8}8/3-1[8:1],7,
3/8-4[8:1],7,{4}8<5[8:1],{8}8,{24}4,3,2,{8}1-5[8:1],8,
1/5,{16},,,,7,8,{8}6,5/4,3/1,8/6,
6/8,{16}1,5,2,6,3,7,4,8,3,7,2,6,1,5,
{8}8b,6/1,7/2,{16}2-5[8:1],1,3,1,{8}2,8,7,
6/2,1,8,{16}7-4[8:1],8,6,8,{8}7,1,2,
3/7,8,1,{16}2v5[8:1],1,3,1,{8}2,8,7,
6/2,{16}3,4,{8}2/5,{16}6,5,{8}7/4,8,{24}1,8/2,7/3,6/4,,,{8}1,
3/8,2/7,{16}7-4[8:1],8,6,8,{8}7,1,2,
3/7,8,1,{16}2-5[8:1],1,3,1,{8}2,8,7,
6/2,1,8,{16}7v4[8:1],8,6,8,{8}7,1,2,
3/7,{16}6,5,{8}7/4,{16}3,4,{8}2/5,1,{24}8,1/7,2/6,3/5,,,{8}4b/8b,
1/2,8/4,{16}3,8,2,1,{8}2,7/3,6/2,
5b/1b,8/7,1/5,{16}6,1,7,8,{8}7,2/6,3/7,
4b/8b,1/2,8/4,{16}3,8,2,1,{8}2,7/3,6/2,
5b/1b,8/7,1/5,{16}6,1,7,8,{8}7,{24}1,8/2,7/3,6/4,,,{8}1b/2b-5[8:1],
8/3,1/2,{16}6,4,7,3,{8}8,5/6,1/2,
8b/7b-4[8:1],1/6,8/7,{16}3,5,2,6,{8}1,4/3,8/7,
1b/2b-5[8:1],8/3,1/2,{16}6,4,7,3,{8}8,5/6,4/3,
8b/1b,{16}6,3,7,1,5,3,{32}8,7,6,5,8/4,1,2,3,8/4,7,6,5,8/4,1,2,3,
{2}4/8h[64:31],1,
E
