&title=SORA-V コズミックバード
&artist=トリ音
&first=0
&des=Slask
&lv_5=13+
&inote_5=(135)
{4},,,,
{4}8<1[4:6]/7s3[4:4],,,,,,,,
{4}3h[4:1],5,6h[4:1],4,
{8}24,35,46,57,{24}8,,8,4,,4,1,,5,7q5[24:15],,3p5[24:13],
{4},,,,
{24}3,,,,,3,4,,,3,,,3,,,,,3,4,,,43,,,
{24}6,,,,,6,5,,,6,,,6,,,,,6,5,,,65,,,
{24}2,,,,,2,4,,,2,,,2,,,,,2,4,,,24,,,
{24}7,,,,,7,5,,,7,,,7,,,,,7,5,,,75,,,
{24}2,,,,,2,4,,,3,,,3,,,,,3,5,,,35,,,
{24}7,,,,,7,5,,,6,,,6,,,,,6,4,,,64,,,
{24}2h[24:5],,,,,3h[6:1],,,,4h[24:3],,,{24}8h[24:5],,,,,7h[6:1],,,,6h[24:3],,,
{8}1s5[2:1],,,6,,,2,,
{24}7h[24:5],,,,,6h[6:1],,,,5h[24:3],,,{24}1h[24:5],,,,,2h[6:1],,,,3h[24:3],,,
{24}1,,,7>5[24:9],,5,,,6h[24:10],7,,,,,,,,,,,,,,,
{24}15,,,2<4[24:9],,4,,,3h[24:10],2,,,,,,,,,,,,,,,
{24}65,,,7pp3[24:9],,4,,,6h[24:10],7,,,,,,,,,,,,,,,
{12}2,5,3,6,4,7,{12}85,85,85,{8}12,34,
{24}7,,,7,,5,6,,6,,,6,,,6,,,4,5,,,34,,,
{24}2,,,2,,4,3,,3,,,3,,,3,,,5,4,,6,56,,,
{24}8,,,8,,4,7,,7,,,7,,,7,,,5,6,,,45,,,
{24}1,,,1,,5,2,,2,,,2,,,2,,,4,3,,5,45,,,
{24}7,,,7,,8,6,,6,,,6,,,6,,,1,5,,,34,,,
{24}2,,,2,,1,3,,3,,,3,,,3,,,8,4/8,,,
{8}6q4[8:3]/2q8[8:3],,,,,,
{8}7h[8:1],6h[8:1],5,
{8}15,2,3,4,84,7,6,5,
{24}15,,,2,,4,3,,8,,,56,,,5,,,7,4,,,65,,,
{24}84,,,7,,5,6,,1,,,43,,,4,,,2,5,,3,34,,,
{24}16,,,2,,5,3,,74,,,56,,,6,,,2,4,,,65,,,
{24}83,,,7,,4,6,,25,,,43,,,3,,,6,65,,,3bpp6[8:5]/7bpp2[8:5],,,
{4},,,,8V25[8:3]/4V61[8:3],,,{8},
{4}1z5[8:5]/7s3[8:5],,,{8},{24},,,,,,
{24}26,,2,3,,3,4,,4,5,,5,2,3,4,8,7,6,{32}51,2,3,4,5,6,7,8,
{4}1s5[4:5]/6h[4:6],,,,,,,{8},8,7qq1[4:5]/3h[4:4],,,,,,,,,,2,,3,,4,7,
{8}6/5qq3[8:3],,,,7h[8:3],,,5,3/4pp6[8:3],,,,2h[8:3],,,7,8pp3[2:1]/1,,,
{24}7,,,,,6,,,6,,,,5,,,2h[8:1],,,4,,,56,,47,,,8,1,,,34,,25,,,1,8,,,
{24}3,,6,3,,5,3,,4,3,,2,3,,1,3,,8,3,,7,3,,6,
{24}26,,,5pp2[24:9],,43,,,1h[24:10],5,,,,,,,,,,,,,,,
{24}73,,,4qq7[24:9],,56,,,8h[24:10],4,,,,,,,,,,,,,,,
{24}84,,,7qq3[24:9],,62,,,1h[24:10],7,,,,,,,,,,,,,,,
{12}87,6,45,3,12,8,37,37,37,{8}56,12,
{24}3,,,3,,4,3,,3,,,3,,,3,4,,3,8,,,12,,,
{24}7,,,7,,8,7,,7,,,7,,,7,8,,7,4,,6,56,,,
{24}3,,,3,,4,2,,2,,,2,,,2,5,,3,4,,,16,,,
{24}7,,,7,,8,6,,6,,,6,,,6,1,,7,8,,,52,,5,
{24}3,,,3,,4,3,,3,,,3,,,6,4,,2,4,,,35,,,
{24}7,,,7,,8,7,,7,,,7,,,2,7-3[12:1],,8,5,,,
{8}7-5[12:1]/2,,2-6[12:1]/7,1<5[8:1],2,1,2h[8:1],3h[8:1],4,
{8}5-7[12:1],8v3[12:1],5,8,1V74[8:1],2,1,{24}3,,3,
{24}6,,,6,,5,7,,7,,,7,,,4,6,5,6,2,,,15,,,
{24}3,,,3,,4,2,,2,,,2,,,5,3,4,3,7,,,84,,4,
{24}6,,,6,,5,7,,7,,,7,,,4,6,5,6,2,,,15,,,
{24}2,,2,3,,3,4,,4,5,,5,6,,6,8,1,8,37,,,1bqq2[8:5]/5bqq6[8:5],,,,,,,,,,,,,,,,,,,,,,,,8>7[8:5]*<1[8:5],,,,,,,,,,,,,,,,,,,,,,,,
{8}6q4[8:5]/2p4[8:5],,,,,,,,
{8}7h[4:1]/3,,{8}4,56,34,
{24}21,3,4,8,7,6,{32}2,3,4,5,2,1,8,7,
{4}6z2[8:9]/5<4[4:6],
