&title=Vindication
&artist=Laur
&first=-0.876
&des=某科学的零氪百合子
&des_5=某科学的零氪百合子
&lv_5=13+
&inote_5=(174){4},,,,{2}2/7h[16:15],
{8}1,2,3,4,
{4}5h[16:3],6h[16:3],7h[16:3],8h[16:3],
{8}1pp5[8:3],,,5<4[8:3],,,,,,7,
5,6,{4}4,5/3,
{2}4/6,{8}6/3h[8:3],,,2,
{4}1h[16:3],8h[16:3],7h[16:3],6h[16:3],
{8}5p4[8:3],,,4>5[8:3],,,5,4,
,,,,2,1,{4}8,
{8}8/1,2,7,2,6,3,6,3,
{4}5h[16:3],4h[16:3],3h[16:3],4h[16:3],
{8}5p4[8:3],,,4>5[8:3],,,4,3,
2,1pp4[2:1],,1/7,{4}8V64[8:1],8,
{2}3h[8:3]/6pp1[8:3],{8}5,4,3,2,
{4}1h[16:3],8h[16:3],7h[16:3],6h[16:3],
{8}5p8[8:3],,,8p3[8:3],,,{4}3w7[4:3],
,,,,3/6b-1[8:1],
{8}2,3-7[8:1],,6,{4}5-1[8:1],
{8}3,2-5[8:1],,8,{4}7-4[8:1]*-2[8:1],7,
3/5b-1[8:1],{8}3,2-5[8:1],,7,{4}6-1[8:1],
{8}3,4-8[8:1],,1,{4}2-5[8:1]*-7[8:1],2,
4/3b-6[8:1],{8}2,2-7[8:1],,1,{4}1-4[8:1],
{8}8,8-5[8:1],,7,{4}7-4[8:1]*-3[8:1],7,
6/5b-2[8:1],{8}6,7-4[8:1],,6,{4}5-1[8:1],
{8}7,8-4[8:1],,5,{4}5p1[8:1]*q1[8:1],5,
{8}2b/7b,8,1,2/5,3,4,5/8,6,
7,8/3,1,2,{4}8/4w8[8:1],4,
{8}3/6b<1[8:1],5,4,3<6[8:1],2,1,8>3[8:1],7,
6,5<8[8:1],4,3,{4}2w6[8:1],2,
{8}8b-4[8:1],7,8,1-5[8:1],2,1,7-3[8:1],8,
7,2-6[8:1],1,2,{4}5>2[8:1]*<8[8:1],5,
{8}1bp5[8:1],2,1,8q4[8:1],7,8,2>5[8:1],1,
2,7>2[8:1],6,7,4-8[8:1],3,{4}4/1<1[4:15]*s5[8:1],
{1}1b,
{4},,,,,,,,,,,,1/8-5[8:1],
8/5-2[8:1],5/2-7[8:1],2/7,
3-5[8:1]/6-2[8:1],6/3,3-7[8:1]/8-2[8:1],8/3,
{8}8,7,6,5,{16}4/1,2,3,4,5,6,7,8,
{1}1b<1[2:1],
{16}8,7,6,5,{4}4-8[8:1],4/6,{16}2,1,5,6,
1,8,4,5,8,7,3,4,1s5[16:1]/8z4[16:1],2/7,{8}3/6,{16},,,,3/7-3[8:1],
4,5,6,{4}7/1w5[8:1],1,{8}2-5[8:1],7-4[8:1],
2-8[8:1],7-1[8:1],2-6[8:1],7-3[8:1],2,7,{24},,,,,,6b/3,
7,8,1,2,3,6bqq3[4:1],7,8,1,2,3,,,,,,,,,,{8}2bqq7[4:1]*>7[4:1],
,,,,3>6[16:3],6,{4}3,
5h[16:3],{8}7/6,1/8,3/2,4-2[8:1]/5-7[8:1],,4/5,
,7/8,8/1,1/2,,3/4,6pp1[8:3]/5qq2[8:3],1/2,
{2}5/6,{8}6/3,8,{4}8<5[8:1],
{16}8/1,2,{8}3,2/4,7/5,2/8,{16}1,1,{4}1,
{2}3h[4:1]/7p4[4:1],{8}2-5[8:1],1,{4}2,
{16}8/7-3[8:1],6/1,{8}5/2,{4}7,{2}2z6[8:1]/7s3[8:1],
{8}7,{16}7,8,,8,{8}1,,5/1s5[4:1],7/3,1b/5z1[4:1],
,,,,{2}5bw1[8:1],
{4}7h[16:3],{8}3,5/1,1/5,3/7,,1/8,
,3/5-1[8:1],4/6,7/5,,7/5,6/4,3/5,
{1}4bz8[2:3]/2bz6[2:3],
{2},,3/6h[8:3],
2h[2:1],
{4},7,6,5,
{2}4/3h[4:1],{4}5,6,
{2}5/7h[4:1],{4}8,1,
{8}8/2h[4:1],,,,,6,5,7,
{4}3h[16:3],7h[16:3],2h[16:3],8h[16:3],
1,{8}2,2,,8,1,7,
{2}3p6[8:1],{8}8,7,{4}6,
2/4,7/5,3/1,8/6,
{8}7/2q7[4:1],,,,,2,1,8,
{4}6/1,3/8,5/1,4/8,
5-2[8:1]/6-1[8:1],5/6,3-8[8:1]/4-7[8:1],3/4,
{8}6/2h[2:1],,,,,1,8,7,
{4}3/6-3[8:1],6/3-8[8:1],3/8-5[8:1],8/5,
{8}4,3,2,1,5,6,7,8pp4[4:1]*qq4[4:1],
{16},,,,,,,,3,6,2,7,1<2[4:1],5,3,7,
{4}1b,8-5[8:1],{8}8,1,2/8,7/3,
{4}6p2[4:1],2p6[4:1],6>2[4:1],2<6[4:1],
6V82[4:1],2p6[4:1],4-1[8:1],4-7[8:1],
4-8[8:1],4,7-2[8:1]/3-6[8:1],3/7>6[8:3],
{8}7,,,,,7/1,8/2-5[8:1],1/7,
{4}2/8-4[8:1],8/1>4[8:1],1/7<4[8:1],7/1,
3/6,{8}5,1>4[4:1],,6,7,8,
{4}5-2[8:1]/1-6[8:1],5/1,{16}2/6,3/7,4/8,1/5<4[16:7],,,,,{8}5h[8:3],
,,,,4,3/6,7/2,
{4}1/8v5[8:1],{8}8/4,4v1[8:1],,4/5,{4}5-1[8:1],
5/4-8[8:1],4/5<8[8:1],5/1>4[8:1],1/5h[8:7],
8-4[8:1],8,3w7[8:1],3<2[8:3],
{8}4h[8:3],,,,,4,5/3,2/6,
{4}7/1-6[8:1],3/1-4[8:1],7/1p6[4:1],6<6[2:1],
5h[2:1],{8},,,,3/6,2/7,
{2}8h[8:7]/1h[8:3],4h[8:3],
{32}7/3,6/2,5/1,4h[32:5]/8h[32:5],{4},{16},,{24}1-5[16:1],2,3,8-4[16:1],7,6,{8}1,8,
{24}2-5[16:1],3,4,7-4[16:1],6,5,{8}2,7,{24}3-8[16:1],2,1,6-1[16:1],7,8,{8}3,6,
{4}2V46[4:1],6q2[4:1],4-8[8:1],4,
{16}1,2,3,4,1q5[4:1],2,3,4,{4}1/5q1[4:1],1w5[8:1],
{24},,,,,,,,,,,,1,2,3,4,5,6,{8}1,1,
{24}8,7,6,5,4,3,{8}8,8,{24}1,2,3,8,7,6,2,3,4,7,6,5,
1,2,3,4,5,6,7s3[4:1],8,1,2,,,{2}7/3s7[4:1],
{16}4,3,{8}2,{16}4p8[4:1],5,{8}6,{4}4/8p4[4:1],4w8[8:1],
{24},,,,,,,,,,,,2,3,4,7,6,5,{8}1,1,
{24}7,6,5,2,3,4,{8}8,8,{24}2,3,4,7,6,5,{8}1,1,
{16}1,2/8,7/3,6/4,{8}5p1[8:1]*q1[8:1],7/3,5b,{16},,,,8,7,
6,5,{8}4-8[8:1],3/5,4,{4}2-6[8:1],2/8-5[8:1]*-3[8:1],
{2}8b,{24}7b,6,5,4,3,2,{8}1/5,5,
{24}2b,3,4,5,6,7,{8}8/4,4,{24}1/5,2,3,1,8,7,2,3,4,8,7,6,
{1}1bw5[2:3]/5bw1[2:3],
E
