&title=CHAOS
&artist=Æsir
&first=0
&des=
&des_6=Æsir
&lv_6=14
&inote_6=(150){4},,,,,,,,{1}5x/4x>5[4:3],
{4}4>5[8:5],{8},,,,3,2-4-1-5[8:5],
,,,,,,6,3qq6[8:5]/7qq2[8:5],
,,,,,,,,{4}2h[8:1]/4h[16:1],
3h[16:1]/5h[8:1],4h[16:1]/6h[8:1],5h[8:1]/7h[16:1],
{16}2,4,{8}3h[8:1],{16}6,5,{8}7h[8:1],{16}2,1,{8}3h[8:1],{16}7,8,{8}6,
{16}2,2,{8}4h[8:1],{16}7,7,{8}5h[8:1],{16}1,1,{8}3h[8:1],{16}8,8,{8}6h[8:1],
2h[8:1],4h[8:1],5h[8:1],7h[8:1],{16}2,8,3,7,4-8[8:1],6,1,8,
{4}4b-6-3-7-2-8[1:1],,,4,
{8}3h[8:3],,,7h[8:3],,,{4}6qq1[4:3],
6/2h[8:3],,,3pp8[4:3],
3/7h[8:3],,,6<5>6[4:7],
{1}6/3h[4:3],
{8}E5/D5,,,E3/D3,,,{4}E1/D1,
{1}Ch[4:3]/4<2[2:1],
3q6[8:3],
{4}6/2bV48[4:1],{8}2,7-5<3[8:3],,4/7,3,2,
,1/4,{16}6,5,,3,{8}4-8[8:1],2/1,{4}4-2>7[2:1],
6/4,{8}8-4[8:1],1,,2-6[8:1],{4}1,
{8},7/5,{16}3,4,,6,{8}5,7/8,{16}1,5,2,4,
{8}3>8[8:1],8,7/3,6,5q1[8:1],2q6[8:1],5,2,
8,7/1,{16}3,4,,6,{8}5-2[8:1]*-8[8:1],3/7,{4}5,
{8}6<1[8:1],1,2/6,3,4>1[8:1],7<4[8:1],4,7,
8,2,{16}6,5,,3,{8}4,6/2,{16}4>1[8:1],4,4,4,
{4}4-6[8:1],{8}4/3,3-7[8:1],,7/3,8,1h[8:1],
,2/4,{16}6-8[8:1],5,,5,{8}6>3[8:1],1,{4}6/2-6[8:1],
2/1-7[8:1],{8}1/5,2-6[8:1],,4/2,5h[2:1],{32}A6f,D7,A7,D8,
A8,D1,A1,D2,A2,D3,A3,D4,{16}A4,,,6,{8}7/5,8/1,{16},2/4h[16:3],,,{4}7-5[8:1],
{8}7/8,2>5[8:1],,2/1,6,7h[8:1],
,1/7,{16}5-3[8:1],6,,6,{8}5<8[8:1],2,{4}5/1-5[8:1],
1/4-8[8:1],{8}4/3,3-1[8:1],,3<6[8:1],6>3[8:1],3,
,7,2/8,{16}3,4,2-6[8:1],1,3,1,{4}2,
7h[4:1],{32}4x,5,{16}6h[8:1],{32},,3x,4,{8}5h[8:1],{32}2x,3,{16}4h[8:1],{32},,1x,2,{8}3,
8h[8:1],7,{16}5,5h[8:1],,4h[8:1],,2,{8}2h[8:1],{16}7,7,8,6,
{4}2h[4:1],{32}5x,4,{16}3h[8:1],{32},,6x,5,{8}4h[8:1],{32}7x,6,{16}5h[8:1],{32},,8x,7,{16}6,1,
{8}1h[8:1],{16}3,3h[8:1],,6,{8}5,{16}7,8,,3,{8}4,{16}2,2,
{4}7h[4:1],{32}4x,5,{16}6h[8:1],{32},,3x,4,{8}5h[8:1],{32}2x,3,{16}4h[8:1],{32},,1x,2,{8}3,
{16}E2,E3,E4,E8,E7,E6,A2,A3,A4,A7,A6,A5,2h[16:1],6h[16:1],8h[16:1],4h[16:1],
{4}2h[4:1],{16}4,5,6,7,1/8,2,3,4,8/5,7,6,5,
2,4,2,3,2,1,2-6[8:1],8,1,7,{8}2,,,{4}7<4[4:1],
4>1[4:1],1<6[4:1],6,
2>5[4:1],5<8[4:1],8>3[4:1],3,
7V53[4:1],3V17[4:1],7V53[4:1],3,
2V46[4:1],6V82[4:1],2V46[4:1],6,
{8}7-4[8:1],8,1-6[8:1],2,3-8[8:1],4,5,5,
2-5[8:1],1,8-3[8:1],7,6-1[8:1],5,4,4,
{16}2,6,3,5,{32}1,2,3,4,7,6,5,4,{16}1,,,3,,,{8}7,
{4}4/5,{16},,,,,,,,7,2,8,1,
{24}6/3,7,8,1,2,3,6>3[8:1],7,8,1,2,3,{4}6b<3-1<8-6[8:5],{8}4h[16:1],4h[16:1],
5h[16:1],5h[16:1],4-1[8:1]*-7[8:1],2,{4}4,{16}2,6,3,5,
{8}4/7h[8:1],{32}E8,B8,B1,E2,{8}3h[8:1],{32}E4,B4,B5,E6,{4}7bs3[8:1],{8}7,1bv3[8:1]*v4[8:1],
,1b<5[8:1],,1,{4}3bh[8:1],{16}8V64[8:1]*v5[8:1],4,6,2,
{4}8xV24[8:1]*v3[8:1],8x,{12}4b/7b,6,5,2/7,1,8,
5/2,3,4,2/7,8,1,{32}7/3b,4,5,6,7,8,1,2,3,4,5,6,7,8,1,2,
{4}3/6>3[8:1],1/6V84[4:1],6b/2bqq3[4:1],{8}2,5b<8[8:1],
,5/3bq4[4:1],,3/1,{2}7b>5[4:1],
{48}A2,E3,E4,A4,,,A8,E8,E7,A6,,,A1,E2,E3,A3,,,A7,E7,E6,A5,,,{4}2b-6[8:1],{8}7xh[16:1]/2qq3>6[8:5],7xh[16:1],
6xh[16:1],6xh[16:1],5x-8b[8:1],5x,{4}5bx,{16}2<7[8:1],4,3,4,
{4}2/5-1[8:1],5/3h[8:1],{16}7b,7,5,5,4,4,2,2h[16:3],
{32},,,,8bx,7x,6x,5h[32:3],,,8bx,7x,6x,5h[32:3],,,8bx>3qq4[8:3],7x,6x,5,,,,,{4}8,
7bx-3b[8:1],7bx,{8}2-4[8:1],4-2[8:1]/6-4<1[8:3],2,6,
,,2h[4:1],4,{24}3b,3,3,3<6[8:1],3,3,{8}3,3bx>2<1<8<7<6[4:1],
,,,5,{16}2h[16:3],,,4h[16:3],,,{8}5h[8:1],
{4}7>6[2:5],{8},,,,E7,E8,
,,,,,,E4,E5,
,,,,,,E3,E2,
{16}7,5,6,5,7,5,6,5,2,4,3,4,2,4,3,4,
2,7,4,5,1,8,3,6,{2}7b/2b,
{8}5x<8[8:1],2>5[8:1],5,2,1-5[8:1],8,1/3<6[8:1],2,
3/7-3[8:1],8,7/2-6[8:1],{16}1,1,{4}2/8-5[8:1]*-3[8:1],8,
{8}4-1[8:1],7-4[8:1],4,7,8-4[8:1],1,8/6>3[8:1],7,
6/2-6[8:1],1,2/7-3[8:1],{16}8,8,{4}7/1q5[8:1]*v4[8:1],1,
{8}2/7-4[8:1],4V61[4:1],7/2,1,{32}2<7[8:1],3,{16}4,,,{8}2/6,5,
2-5[8:1],5V38[4:1],2/7,8,{32}7>2[8:1],6,{16}5,,,{8}7/3,4,
{16}8-4[8:1],2,6,4,{8}8,2,{16}1-5[8:1],7,3,5,{8}1,7,
{16}8,1,7,2,6,3,{8}5h[8:1],{32}4,3,2,1,8,7,6,5,{4}4/8b,
{16}1-5[8:1],8,,8,{8}1>4[8:1],7-3[8:1],1<6[8:1],7,1,5,
{16}8-4[8:1],1,,1,{8}8<5[8:1],2-6[8:1],8>3[8:1],2,8,4,
{16}7-3[8:1],2,,2,{8}7<4[8:1],1-5[8:1],7>1[8:1],1,7,{16}4,4,
{8}2-4[8:1],1-5[8:1],2-6[8:1],1-7[8:1],2>5[8:1],1-5[8:1],2,1,
{16}3,4,3,4,8,7,8,7,5,6,5,6,2,1,2,1,
3,7,3,7,5,6,5,6,1,4,2,5,3,6,4,7,
1,8,3,6,2,7,4,5,1,8,3,6,2,7,4,5,
1,7,2,6,3,5,{8}5,{32}3/4b,2,1,8,7,6,5,4,3/7,8,1,2,3,4,5,6,
{1}7pp2<6b[4:13]`3pp6>2[4:13],
,,,{16},,{24}E3,
E4,{1},{16},,{24},E7,
E6,{1},{4},{16},,{24},{8}5h[8:33]/4h[8:33],
E
