&title=其のエメラルドを見よ
&artist=庭师
&first=1.403
&des=我是谁
&des_5=我是谁
&lv_5=14
&inote_5=(183){4}6xh[4:7]/2q7[4:5],,,,,,,,{1}2x/6x<1p5[4:3],
{2}4xh[2:1],6h[2:1],
{16}1-5[8:1],,,4,,,{8}8-3[8:1],{16},6,,,4-7[8:1],,,1,
,,{8}6-2[8:1],{16},1,,,4,,,7,,,{8}2,
{16}8-4[8:1],,,5,,,{8}1-6[8:1],{16},3,,,5-2[8:1],,,8,
,,{8}3-7[8:1],{16},8,{32},,,,A6,E6,E5,A4,,,,,,,,,{16}4,5,
{4}6h[8:1]/2-5[8:1],{8}5,6,{4}7h[8:1]/2-5[8:1],{8}5,6,
{4}7h[8:1]/8-3[8:1],{8}4,5,{4}6h[8:1]/8-3[6:1],{8}4,5,
{16}6h[8:1]/4-1[8:1],,,3h[16:3],{4}4,{16}2-7[8:1],,,1h[16:3],{4}2,
{16}8-5[8:1],,,7h[16:3],{4}8,{16}6-3[8:1],,,5h[16:3],{4}6,
{8}8,4,7/3,2,6/4,8,3/5,1,
5/7,8,4/2,1,4/6,8,3/5,1,
{12}4,5,6,5,4,5,{16}3,5,4,6,4,5,3,5,
{4}4bh[24:1],,,3,
{24}6,5,{48},,,,,{16}6,,,{8}3,4,,,6,
4,{16}3,4,,3,,,{8}4,{16},,,,E1,B1,
B2,,,4,,,{8}4,{2}3<5[4:1],
{12}E7,B6,B5,E5,{4},,{24},{16}6,5,
6,,,4,,,{8}3,5,,,3,
5,{16}6,5,,6,{48},,,,,,{24}5,6,{48},,,,,,,,,,,,,,{16}E1,B8,
{6}B7,5,5,6>4[4:1],{12},{4}1,
{2}2,{8}1,{16}4h[16:1],3,,,{8}2/5,
{16}4h[16:3],,,3h[16:3],,,{8}4,2/1,3h[8:1],4,2h[4:1],
1,{16}1,3,,,{8}3/4,3,4h[8:1],{16},,2,1,
2h[16:3],,,4,,,{8}5/2,{4}1pp5[4:3],8h[8:1],
{2}7h[8:3],{8}6h[4:1],{16},,,,6,5,
6h[16:3],,,5h[16:3],,,{8}6,7,8/7,5,7h[8:1],
8,{16}6,5,,7,{8}8,{16}6/5,,,7h[16:3],{4}8,
{6}1/6,8/3,4/5,6/1,{48},{16}5,,,{8}4/6,
{4}7-2[8:1]/3-6[8:1],7/3,5-8[8:1]/1-4[8:1],5/1,
{16}7,5,8,3,,3,,6h[16:3],,,,1h[16:3],,,,,2,
4,1,6,,6,,8h[16:5],,,{8}7,{4}7,
{16}6x,2,8,4,,4h[8:1],,6x,,6,8,6,8,6,{8}4h[8:1],
{16}1,,,4/7,,,{8}3<6[8:1],,2/3,,,7,
{16}7,5,,5,,6,4,3,2,1,7,6,5,4,
{8}2,{16}2,4,,4,,5/1,,,6,7,{8}8/1,{16}2,4,
{8}3h[8:1],{16}7,5,{8}6h[8:1],{16}2,4,{8}3h[8:1],6h[8:1],{16}2x,1x,8x,7x,
6x/8xh[16:3],,,4h[16:3],,,{8}6h[4:1],,1w5[8:1],,,,7/3,
{4}6>3[8:1],6h[4:1],{32}2,1,8,7,6,5,{16}4,
3x-8[8:1],,,5,{8}3,{16}5,6,7-4[8:1],,,1,{8}7,{16}1,2,
3-6[8:1],,,1,{8}3,{16}1,8,7<4[8:1],,,1,{8}7,{16}1,2,
{8}3h[4:1],1,5h[4:1],{16}1,2,{8}3h[4:1],1,5,{16}1,2,
{8}7/3h[8:1],{16}4,3,,5/2,{48},,{24}6,5,{4}6h[4:1],{16}3,5,3,5,
{8}1,{16}8/2,8/2,,,{8}4/7<5[8:1],7/4,3,2,1,
5,{16}2/6,6/2,,4-8[32:3]/7-4[32:3],,,{8}7/4,{16},,,,3,3,
3,,,6,,,{8}5/3,{4}6-3[8:1]/2-7[8:1],2/6,
{12}8h,6,4h,8,2h,4,8h,6,4h,8,2h,4,
{1}8w4[4:1],
{2}5h[24:1],{12}5h[24:1],,,,,2pp3[12:5],
5h[24:1],,,,,7,,,{3}7h[24:1],
{4}6pp7[2:1],4,{12}4,4h[24:1],,,,2p5[3:1],
{2}2h[24:1],{12}8h[12:5],,,,,6p4q6[3:4],
,,,,,,{2}7xh[4:1],
{12}5x,5xh[24:1],{24},,,,,,,,,,,{8}8,{24},,,,,,{12}7,
7,{6}7p2[4:1],{12},,{4}1-5[8:1],1x,
{2}4-6-8-2-4[2:1],1xh[2:1],
{24}5b,6/2,7/3,8/4,,,{8}8,{16}8,6,{8}8,5,6/4,3/7,
{16}3/7,2/6,{8}1/5,1,{16}1,3,{8}1,4,3/5,6/2,
3x,{16}3,4,{8}2,2/8,6,{16}6,5,{8}7,{16}1,3,
{8}2,{16}6,8,,,{8}1/3,{16}6x,4,{8}8,{16}2,8,{8}3<5[8:1],
8x,8,8,8,5x/8,4x/8,3x/8,2x/8,
{32}1x/B8,C,B4,A4,{8}1,1,1,4x/1,5x/1,6x/1,7x/1,
8xh[16:1]/2xh[16:1],8h[16:1]/2h[16:1],7h[16:1]/3h[16:1],7h[16:1]/3h[16:1],6h[16:1]/4h[16:1],6h[16:1]/4h[16:1],{16}5-8[8:1]*-2[8:1],5h,5h,5h,
{4}5h,3-8b[8:1],3b/7b-4b[8:1],7b/1b,
{8}8b/1b-6b[8:1],{16}3,2,{8}1b,4,7/5-2b[8:1],{16}7,6,{8}5b,8,
1-5b[32:3],{16}7,8,{8}1b,7,{2}6b-3b[8:1]/4b-1b[8:1],
{8}8/2-5b[8:1],{16}8,1,{8}2b,7,{4}6b-1b[8:1]*-2b[8:1],6b,
{8}4b-8b[32:3],{16}3,5,{8}4b,6,{2}7b-4b[8:1]/1b-5b[8:1],
{6}3/6h[4:1],2,4/1h[6:1],8,5/7h[4:1],4,
5/3h[6:1],7,2/6h[6:1],1,5/8h[4:1],4,
3,5/3,7/5,2/4,8/6,3/1,
{12}6b,6b,6b/3b,3b,3b,7b/4b,4b/7b,7b/4b,7b/4b-1[12:1],,,B7/E7/B6,
,,,,7-5<6-1[12:5],7,{2}E1/B1/E2/B8,
{3}B3/E3/B4/E4,{12}5/2-4>3-8[12:5],5/2,{2}A5/D5/A4/B5/B4,
{3}B6/E6/B5/A5,{12}4/6<8p4[12:5],6/4,{2}E3/A3/B3/A2,
{3}B1/B8/E2/A1,{12}5/3<5p1[12:5],5/3,{2}B7/E7/A7/E8,
{12}7,7h[24:19],,8,,2,{6}2,4,{48},,,,,{16}8,
{12}1,1h[12:5],,7,,6,{6}2,{48}7/4,,,,,,,6,,,{16}3,4,
{1}5h[2:9]/2h[1:2],
{4},,,,,1h[4:1],
,8,
{1}7p2[4:3],
{8},,,,2,{16}2,6,{8}4,{16}6,2,
{8}8-6[8:1],{16}3,3,{8}8-2[8:1],{16}5,5,{8}8-6[8:1],3,8,5,
{4}1-5[8:1],{8}1>4[8:1]/6-8[8:1],7,{4}1/6,{8}5,5/7,
6x,{16}6,5,{8}7,{16}7,8,{8}6,{16}6,5,7,1,7,5,
{8}3x,{16}3,4x,{8}2,{16}2,1,{8}3,{16}3,4,{8}2,{16}2,1,
3,4,2,7,5,6,1,8,3,4,1,8,5,6,1,8,
{32}3,4,5,6,7,8,1,2,3,4,5,6,7,8,1,2,{8}3s7[4:9],{16},,,,8,7,
{1}6z2[2:7]*z2[2:7],
,,Ch[1:1],
{4}A1,A8,A7,A6,
A5,A4,A3,{8}7,7,
1h[4:3],6,6,5,{4}5,{8}7,7,
{16}2,4,{8}3,{16}6,4,5,5,{32}6b/4b,7b/3b,{16}8b/2b,{48},,,,,,{24}2x,1,2,1,2,1,
2,1,2,1,2,1,{8}2,3/8,{16}6-1[8:1],,,5,{8}6,{16}4,3,
2-5[8:1],8,,8,{8}2,6,{16}7-4[8:1],,,8,{8}7,{16}1,2,
3-8[8:1],5,,5,{8}3,{16}7,6,{8}5h[4:1],8,4h[8:1],{16}8,7,
{8}5/6h[8:1],8,4/3h[8:1],1,{16}2/8,,,7/3,,,{8}5/1,
{32}8-4[8:1],7,6,5,4,3,2,1,{4}Cf,{16}3/7,7/3,,1/5,,,{8}5/2>4[8:1],
2/5,6,7,8/5,5/8,{16}6/3,3/6,,5-1[32:3]/2-5[32:3],,,{8}5/2,
{16},,,,3,3,8,,,7/4,,,{8}5/6,
{4}1-7[8:1]/2-4[8:1],2-6[8:1]/1-5[8:1],2/1,{16}7,8,7,8,
6,3,6,3,5,2x,4,2,4,2,4,2x,,7x,5,7,
5,7,,3x,5,3,5,2x,1x,7,8,6,1,5,2,4,
{24}2,5,{12}1h[6:1],{24},,7,6,5,4,,,2x,3,4,8x,7,6,1x,2,3,7x,8,1,
2,3,4,5,6,7,3,2,1,8,7,6,{8}5,{16}8,3,{48},,,,{12}4/6,{24}2,8,
{4}2,{16}6,5,{8}7,{16}6-1[8:1],5,,5,{8}6,4,
{16}2>5[8:1],8,,8,{8}2,6,{16}7-4[8:1],8,,8,{8}7,2,
{24}3>8[8:1],5,3,5,3,5,{8}3,7,{16}6h[8:1],,,3h[8:1]/5h[8:1],,,{8}4h[16:1]/6h[16:1],
{4}3/5<1[4:1],1>5[4:1],{2}5,
{8}1/7,2/6,5/3,6/4,{16}3h[8:1],,,4h[8:1]/6h[8:1],,,{8}3h[16:1]/5h[16:1],
{4}6/4>8[4:1],8<4[4:1],{2}4,
{8}2/8,3/7,4/6,5/3,{16}1b-5b[8:1],,,6b,{8}1b,8b,
{4}7b-4b[8:1],7b/3b-8b[8:1],{16}3b/5b,,,5b,{8}2b-6b[8:1],1b,
{4}2b/8bw4b[8:1],8b,{8}6,7b/1b,5/6,4/2,
1b/8b,4/3,7b/5b,{32}2b/1bh,8/3h,4/7h,6/5h,
E
