&title=Comet Coaster
&artist=DJ Noriken / aran
&first=0.02
&lv_5=13+
&des_5=NUT_X
&inote_5=
(180){4},{8},,,,,,,,,,,,,,,,,,,B6,
{4}B3,
7h[1:1],6,5,4,
{8}3h[8:3],,,5,{4}6h[4:1],{8}4,3,
2h[8:3],,,5,{4}6h[4:1],{16}4,3,2,1,
{8}7p5>3[8:5],7,{4}1h[2:1],,,2h[1:1],
3,4,5,
{8}6h[8:3],,,4,{4}3h[4:1],{8}5,6,
7h[8:3],,,5,{4}4h[4:1],{16}5,6,7,8,
{8}2qq6[2:1],2,{4}8h[2:1],{16},,,,,,2,2,
{4}8b,7/E4,6/E3,5/E2,
{8}7b/C,,,B3,{4}B2,{8}B4,B3,
8b/B2,,,B3,{4}B2,{16}B4,B3,B2,B1,
{8}6b,C,{4}7b,,,1b/C,
2/E6,3/E7,4/E8,
{8}2b/C,,,B6,{4}B7,2/C,
1b/E5,2/E6,3/E7,4/E8,
1b/5b,3/7,{2}1>4[8:1]/5<8[8:1],
{4}5x>2[8:1],5/7,4<7[8:1],4/2,
5>1[8:1],7/5,4<8[8:1],2/4,
5>5[2:1],C,5>1[4:1],C,
8bw4[8:1],8b,{8}1bw5b[8:1],8b/2b,{4}1b/Cf,
8/1-5[8:1],1/2,1/8-4[8:1],8/7>3[4:1],
{8}3,,,8,{4}3/7h[4:1],{8}3>7[4:1],7,
6,,,1,{4}6/2h[4:1],{16}5,6,7,8,
{8}2>6[4:1],2,{4}6<2[4:1],2-6[8:1],6h[4:1],
8-4[8:1],8/6,8/1-5[8:1],1/3>7[4:1],
{8}6,,,1,{4}6/2h[4:1],{8}6<2[4:1],2,
3,,,8,{4}3/7h[4:1],{16}5,4,3,2,
{8}6>2[4:1],6,{4}2<6[4:1],5-1[16:1],5b/Cf,
8/7-2[8:1],7/6,6/5-1[8:1],5/4<8[4:1],
{8}3,,,1,{4}2/8h[4:1],{8}5>1[4:1],7,
6,,,8,{4}7/1h[8:3],{16}5,6,7,8,
{8}2V46[4:1],2,{4}6V82[4:1],2-6[8:1],6h[4:1],
8-4[8:1],8/1>4[8:1],1/6<1[8:1],6/5q2[4:1],
{8}8,,,3,{4}2/6h[4:1],{8}4p7[4:1],3,
2,,,6,{4}7/3h[8:3],{16}5,6,7,8,
{8}4<3[16:5],4,{4}5x-1[16:1],5b/Cf,2-5b[16:1]/7pp5[2:1],
2b,4x,3-1[8:1],3/B6/E7,
4/3-1[8:1],3/B6/E7/B7,3/4,7-4b[16:1]/8pp3[2:1],
7b,5x,6-8[8:1],6/B3/E3,
5/6-8[8:1],6/B3/E3/B2,{8}5/4,{16}3,3,{4}8b,
{16}4/3-1[8:1],,,4,{8}3,5,{16}3-8[8:1],,,4,{8}3,5,
{16}3-1[8:1],,,4,{8}3,5,{16}3-8[8:1],,,4,{8}3,5,
{16}3,,,6/4,,,{8}3/5,{16}1,8,2,7,1b-5b[8:1],8,2,7,
{4}1b<6b[8:1],1b>4b[8:1],1b,{24}1b/8b,2bx/7bx,3bx/6bx,4bx/5bx,,,{8}1x-5[8:1],
1,8-6[8:1],8,4,3-5[8:1],2,7/3,
,7,6h[4:1],8,1h[4:1],8>3[8:1],7,8/6,
,6,7-5[8:1],5,7-1[8:1],2>5[8:1],7,2,
,8,6h[4:1],1,3>1[8:1],5<7[8:1],3,5,
4-8[8:1],4,5-7[8:1],5,1,2-8[8:1],3,6/2,
,2,3h[4:1],1,8h[4:1],1<6[8:1],2,1/3,
,2,1-5[8:1],4,1>4[8:1],6<1[8:1],1,6,
,5,4/6,3/7,{4}8-4[8:1]/2-6[8:1],8/2,
{8}8,7,1/6,2,5-8[8:1],1>5[8:1],5,1,
,7,6h[4:1],8,2h[4:1],8-4[8:1],6,8/5,
,6,3/7,2,1-5[8:1],7>5[4:1],1,7,
,8,1,2/7,8v5[8:1],1>4[8:1],8,1,
6,7,8/3,2,1/4,5>1[4:1],6,7/5,
,5,6,7,8/5,4<8[4:1],3,2/4,
,1,2,3,{16}8/4,7,6,5,{32}1-5b[8:1],2x,3x,4x,5x,6x,7x,8x,
1bx/Cf,,,,,,{4},,,{16},{8}1x-5[4:31],
,,,,A8,{4}B7,
{8},,,,,E8,{4}B6,
{8},,,,,,,,,,,,,E2,
E3,E4,
1x<6[4:11],,,,,E1,{4}B2,
{8},,,,,B1,{4}C,
,,,,,,,,3,
4/2h[4:1],{2}B3/B2,
{16}6/4h[2:1],,,,,,,3,{2}3,
{4}6/4,5/7h[4:1],{2}B6/B7,
{16}3/5h[2:1],,,,,,,6,{2}6,
{4}5/2,4/3h[4:1],{2}B4/B3,
{16}5/4h[2:1],,,,,,,2,{2}2,
{4}7/4,5/6h[4:1],{2}B5/B6,
{16}4/5h[2:1],,,,,,,7,{2}7,
{4}3/8<4[2:1],3,2,1h[8:3],
{8},6h[8:1],2h[8:1],7h[4:1],3-7[4:1],3h[4:1],,,{4}1>5[2:1],
6,7,8h[8:3],
{8},4h[8:1],7h[8:1],2h[4:1],6-2[4:1],6h[4:1],,,{4}1,
B4/B5,7/8,B4/B5,
1/2,B5/B6/B4/B3,8/7,B3/B4/B5/B6,
{8}8<5[8:1],8b,3>8[8:1],3b,4b<8[8:1],4b,{16}1b,2,3,4,
5xh[8:1]/1h[8:1],,,6h[8:1]/2h[8:1],,,{8}8h[8:1]/4h[8:1],{16},,3x,2x,8x/1x,7x,6x,5x,
{8}4/3,{16}3,4,,4,{8}2h[8:1],{16}4,5,6,7,1,2,3,4,
{8}5/6,{16}6,5,,5,{8}7h[8:1],{16}5,4,3,2,8,7,6,5,
8h[8:1]/4h[8:1],,,6h[8:1]/2h[8:1],,,{8}4/7,{16}2h[8:1]/1h[8:1],,,3/6h[16:3],,1x,2x,3x,
7h[8:1]/4h[8:1],,,3h[8:1]/6h[8:1],,,{8}4/2,{16}8h[8:1]/7h[8:1],,,5/2h[16:3],,8x,7x,6x,
{8}5/3,{16}3,4,,4,{8}2h[8:1],{16}5,6,7,8,4,3,2,1,
{8}6/8,{16}6,5,,5,{8}7h[8:1],{16}4,3,2,1,5,6,7,8,
4h[8:1]/1h[8:1],,,3h[8:1]/8h[8:1],,,{8}7/2,{16}8h[8:1]/5h[8:1],,,4/3h[16:3],,6x,7x,8x,
1x/2x,3x,4x,5x,,,2bx/8bx,2bx/8bx,,6bx-2[8:1]/4bx-8[8:1],,8bx-6[16:1]/2bx-4[16:1],,6bx/4bx/Cf,,,,,,,,,6,
5,,2,4,3,5,4,6,5,
6h[8:1],,,5h[8:1]/3h[8:1],,,{8}8/7,{16}6h[8:1]/4h[8:1],,,5/3h[16:3],,8,7,6,
{8}3/5,{16}3,4,,4,{8}2,5/3,{16}6,5,,5,{8}7,
{16}6xh[8:1]/1h[8:1],,,8h[8:1]/7h[8:1],,,{8}4/6,{16}3h[8:1]/1h[8:1],,,8/6h[8:1],,2,3,4,
{8}5/7,{16}7,1,,1,{8}3,{16}8h[8:1]/7h[8:1],,,5/3h[16:3],,7,6,5,
{8}4/3,{16}2,8,,8,{8}6,{16}2h[8:1]/1h[8:1],,,4/6h[16:3],,2,3,4,
{8}5b/7bx,8b/1b,5b/4b,1b/2b,{16}5b/4b,6,7,8,{32}1bx/2bw6b[8:1],3x,4x,5x,6x,7x,8x,1x,
{8}2bx/Cf/B7/B6/B5/B2,,,,,E7,{4}E8,
{8}1/8xh[1:1],,,,,E4,{4}E3,
{8}2h[1:1],,,,,E8,{4}E7,
{1}6h[1:1],
{8}3h[1:1],,,,,E7,E6,E5,
4xh[1:1],,,,,E4,{4}E5,
{8}5xh[1:1],,,,,E6,{4}E5,
{12}E6,E7,E8,E1/Ch[4:7],{1},{4},{24},{8}E1,
E8,E7,
E
