&title=ANiMA
&artist=xi
&first=0.08999999
&lv_5=14+
&des_5=AVR_WiND
&inote_5=
(183.5){4},,,,{32}3,
4,{16}5-8-3[16:51],,,,,,,,,,,,,,,{1}4,
6,
{4},1,8,7,
{32}6-8-5-1[4:5],5,{16}4,{4},,,{16},,{32}3,
4,,,,,,,,,,,,,,,{2}4-8[4:3],
2,3-1-4-7-5[8:9],
{1}8h[1:1],
{8}Cf/B6/B8/E1/B1/B3/E4/E6/B7/B2,,,,,4,4,4,
{32}6/4h[8:5],7,{16}8,,,,,,,,,,,{8}2,8,
{2}6h[4:1]/B1/E2/B3/E3/A2/B2f,{4}7/3h[4:1],5-1[16:1],
{2}5/Cf,Cf/E8/E7/B7/E3/B3/E4,
{4}4>7[4:3],{8}5,5,5,5,5,5,
{4}6b,{8}3,3,3,3,{16}3,5,4,5,
{8}3/6,{16}1,8,1,8,1,8,1,8,1,8,1,8,{24}1,2,3,
{4}4h[2:1],7,{2}Cf,
{4}3,3,{16}4,5,{8}4,{4}1-4[8:1],
1/6-1[8:1],{8}6,2-6-4[4:1],,2,{4}7h[4:1],
{8}3h[16:1],6,2/5,1,{16}6,3,5,4,{4}8-5[8:1],
8/3-8[8:1],{8}3,7-3-5[4:1],,7,{4}2h[4:1],
{8}6h[16:1],7/3,4b/7,5,{16}7,4,5,4,8,3,4,3,
{4}2/5-2-8[4:1],{8}5/7,7-3-5[4:1],,7,{4}2,
{16}2,3,{8}4/8,{4}2b/6,{16}2,5,4,5,1,6,5,6,
{4}8b-4[8:1],{8}3,2b-6[8:1],,2/1,7b,1-5[16:1],
7-3[16:1],1b,{4}7b,{16}4,3,2,1,5,4,3,2,
{8}1-6[16:1],{16}4,4,{8}1-4[16:1],{16}3,3,{4}1,{16}5,6,7,8,
{4}1qq6[8:3],{24}5,4,{6}3,2,{48},,,,{16}3,4,2,4,
{4}3,{16}4/3,5,6,7,{2}1h[4:1]/8v3[16:1],
{16}4,5,6,7,3,4,5,6,2,3,4,5,1,2,3,4,
{32}5/1b,,,,,4,3,2,{4}1b/7<1[8:1],{2}7b/Cf,
{32}8b/4h[8:1],,,,,8,7,6,{4}5b/2<5[8:1],2b/Cf,{16}1,8,7,6,
{4}5/1,{16}5/1,2,3,4,{4}5xw1[16:1],{32}B7,B3,,,,,,,{8}6/4,
{16}5,7,4,6,3,5,2,2,4,4,5,5,7,7,
{4}1b,{12}7,7,5,3,3,5,6/4,4/6,6/4,
{64}5bqq1[4:1],,,,,,,,,,,,,,,6,{4}5,7-3[16:1],7,
{16}4,5,1,2,7,8,4,3,6,5,2,3,6,7,4,5,
6,4,6,4,5,3,5,3,{4}4h[4:1]/7-3[16:1],7/Cf,
8b/2b,{12}3,3,4,5,5,4,3/5,5/3,3/5,
{64}4bpp8[4:1],,,,,,,,,,,,,,,3,{4}4,2-6[16:1],2,
{16}5b,4,8/3,7,2/6,1,7/8,6,1/5,2,5/3,6,3/7,4,5/6,7,
{4}8/4b,{16}5,3,7,1,{8}8,{32}8,7/1,6/2,3/5,{8}4w8[16:1],6/2,
{4}4b/Cf,{12}2/6,7/3,8/4,{4}5-2[16:1]/1v6[16:1],{16}5/1,{32},,,,3,4,
{8}7b/5b-1[16:1],6,3/5b-2[16:1],4,7/5b-8[16:1],6,3/5bp4[8:1],4,
{4}5b/7/Cf,{12}7/3,2/6,1/5,{4}4-7[16:1]/8v3[16:1],{16}4/8,{32},,,,6,5,
{8}2b/4b-8[16:1],3,6/4b-7[16:1],5,2/4b-1[16:1],3,6/4b>6[8:1],5,
{4}4b/Cf,{12}3,2,1,{4}5-8[16:1]/8-3[16:1],5/8,
{8}7/4b-8[16:1],3,4b/7v2[16:1],6,7b/1-5[16:1],8,3p7[16:1]/1-7[16:1],4,
{4}3-5[16:1]/1q5[16:1],3/1,{8}6/4,7/3,6/2,4/8,
{16}1,5,1,5,3,7,3,7,4,8,2,6,{24}1,8,7,6,5,4,
{8}3/Cf/B8/A8,B7/A7,B6/A6,B5/A5,B4/A4,B3/A3,A2/B2,A1/B1,
8,7,6,5,4,3,2,1,
8b/4h[16:1],7/3h[16:1],6/2h[16:1],5/1h[16:1],8b/4h[16:1],7/3h[16:1],6/2h[16:1],5/1h[16:1],
8b/4bh,{32}4/8,3/7,2/6,1/5,,,,,{8}2/6,{16}3,5,2,6,{4}4-8[16:1],
Cf/4>5[2:3],{8}E6,E5,{4}E4,B1/E2,
{8}D5,D4,D3,D2,D1,D8,{32}D7,,,,,E8/E2/E1/B8/B1,B7/B2,B6/B3,
{4}E6/E4/4x<3[4:5],{8}E4,E5,{4}E6,B4/E4,
{8}D5,D6,D7,D8,D1,D2,{4}D3,
{16}D5,D6,D7,D8,D4,D3,D2,D1,{2}E8/A7/B7/E7/B3/E3/A3/E4,
{16}D1,D2,D3,D4,D8,D7,D6,D5,{2}E4/A3/B3/E3/B7/E7/A7/E8,
{16}E2,E8,E4,E6,E1,E7,E3,E5,{4}E3/E7/B7/B6/B2/B3/C,C/E1/B8/B1/B4/B5/E5,
{16}5,3,5,3,6,4,6,4,{4}8w4[16:1],8,
6b/2b,{8}5,6,{4}7,4,
{16}7,5,7,4,7,3,7,2,6,4,6,3,6,2,6,1,
{4}7b,{8}5,4,{4}3,5,
{16}2,4,2,5,2,6,2,7,3,5,3,6,3,7,3,8,
4,3,2,1,8q4[16:1],7,6,5,{8}8b/4b,6,6,6,
{16}7,8,1,2,5q1[16:1],6,7,8,{8}5/1b,3,3,3,
{16}4,6,5,6,4,7,5,7,{4}8b-4[16:1]/3b-7[16:1],8b/3b,
{16}2h,6,4h,8,3h,7,1h,5,{4}8bv3[16:1]/4b-7[16:1],4b/8b,
{8}6h[8:1]/Cf/B3/B4,2,,,3h[8:1]/Cf/B6/B5,7,,,5/Cf/B2/B3,
1,{16}5-1[16:1],6/4,{8}3/7,{4}5w1[16:1],5,
{8}7/Cf/B4/B3,2h[4:1]/Cf/B6/B5,,,2/Cf/B5/B6,7h[4:1]/Cf/B3/B4,,,4/E7f/B7/B6,
8/E3f/B2/B3,{16}8,8,8,8,{4}1v3[16:1]/7v5[16:1],1/7,
2b/6b,{8}7,1,{16}7,1,7,{48}1,,7,,,{24}1,{48},7,,1,,{16}7,
{8}8h[8:1],{16}6,5,4,3,2,1,{32}8/3,4,5,6,7,8,1,2,3,4,5,6,7,8,1,2,
{8}6b/3b,2/8,{16}6-8[8:1],4,8pp2[8:1],3,{8}6,{16}3,4,{8}5,5,
7/3,1/5,{16}6-8[8:1],4,8-4[16:1]*-3[16:1],3,{4}6,{16}5,6,7-3[16:1],8,
{8}1/5,7x,{12}1x,4x,6x,{6}2/8b,7/4b,5b/2,
{8}4/3b,{16}6,5,{8}7,{16}3,8,2-6[16:1],1,2,3,{4}2,
{8}4b/7b,{16}6,5,{8}8,{16}3,5,2,4,1,5,3,6,4,7,
8b,6,4,5,2b,2,8,3,4b,2,8,1,6b,6,5,7,
{4}8b/4b,{12}8/1,1,1,4/2,4,4,5/3,3,3,
4/7,7,7,6/5,6/5,7,4/8,4/8,4,7V53[16:1]/3V17[16:1],7/3,7/3,
{4}7/3,{16}4/8,5/1,6/2,7/3,{8}8/4,{32}6,5,4,3,2,1,8,7,6,5,4,3-6-3[32:57],
{64}2/E1f,E2,B1,B8,{16}E8,
E
