&title=ラッキー☆オーブ
&artist=emon(Tes.)
&first=0
&des=MIKU EXPO
&clock_count=4
&demo_seek=78
&demo_len=17.2
&lv_5=13
&inote_5=(126)
{1},
{4}Chf[128:1]/8x^2v3^6[2:1],,1xh[4:1],,
{8}6,5,4-2[8:1]*-6[8:1],,A4/B4,,,,
{4}2qq8>5[2:1]/Chf[128:1],,7xh[4:1],,
{16}5,,,6,5,,4,5,3,,,24,,,35,,
{16}6,,,5,6,,6,,56,,5,,5h[8:1]/6h[8:1],,,,
{16}3,,,4,3,,3,,43,,4,,4h[8:1]/3h[8:1],,,,
{4}2h[8:1]/4h[8:1],2h[8:1]/4h[8:1],
{4}7h[8:1]/5h[8:1],7h[8:1]/5h[8:1],
{4}2xh[8:1]/3xh[8:1],7xh[8:1]/6xh[8:1],{8}8h[64:1]/1h[64:1],72,6h[8:1]/3h[8:1],,
{32}6bx<3[2:1]/3bx,E4/E6,E5,,,,,,{4},C,,
{4}A7/B7/E7/A2/B2/E3,,4h[8:1]/5h[8:1],3h[8:1]/6h[8:1],
{32}3bx>6[2:1]/6bx,E6/E4,E5,,,,,,{4},C,,
{16}A7/B7/E7/A2/B2/E3,,,,8x,1x,7x,2x,
{16}8b/B4/B3/A4/A3/E4f/D4,,,,1b/B5/B6/A5/A6/E6f/D6,,,,
{4}7bx-4V62[2:1]/3bx,1,,3,
{4}2x-5V37[2:1]/6x,8,,6,
{4}5b-1^8-4[2:1]/1b,2,3,3,
{4}1-5[8:1]/5,81,2b/B5/B6/A5/A6/E6f/D6,7b/B4/B3/A4/A3/E4f/D4,
{16}2-4[8:1]/5,,,,62,,,8x,2,4,3,,57,,,,
{16}7-5[8:1]/4,,,,73,,,1x,7,5,6,,42,,,,
{16}2-5[8:1]/6,,,,82,,,7x,1,6,5,,74,,,,
{16}7/3,,,,2,8,1,7,2b/D6/A5f/E6/B5/E5,,1x,,7b/D4/A4f/E4/B4/E5,,8x,,
{8}4b-7[8:1]/6,3,2,1,5b-2[8:1]/3,6,7,8,
{8}4b-8[8:1]/3,1,2,3,5b-1[8:1]/6,8,7,6,
{16}2,5,3,6,2,5,3,6,3,6,4,7,3,6,4,7,
{16}1,6,3,8,4,7,2,5,{32}1x,2,3,4,5,6,7,8,1x,2,3,4,5,6,7,8,
{16}1bx/Cf,,,,4,2x,,8,1,8,1,,7,1,6,,
{16}5h[8:1]/7h[8:1],,,,5,7x,,1,8,1,8,,2,8,3,,
{16}4h[8:1]/2h[8:1],,,,5,3x,,6,2,6,2,,3,7,3,,
{16}5h[8:1]/6h[8:1],,,,B6,B3,B5,B2,7bx-4[8:1],,,,7b/2b-5[8:1],,,,
{16}7b/2b,,,,4,6x,,3,7,3,7,,B3,B6,B2,B5,
{16}Cf,,,,43,,52,,4,3,5,4,6,5,7,4,
{4}6b/C/B1f/B2,3b/A8/D8/A7/E8f/B8/B7,5b/A1/D2/A2/E2f/B1/B2,4b/C/B7/B8f,
{4}6h[8:1]/1h[8:1],5h[8:1]/7h[8:1],4h[8:1]/2h[8:1],3h[8:1]/8h[8:1],
{4}7/5^3[8:1],53,2/4^6[8:1],46,
{8}8/6^4[8:1],,64,,31,7,24,6,
{4}6/4-7[8:1],24,3/5-2[8:1],75,
{16}1/7-3[8:1],,,,37,,,,5,2,4,,35,,7,,
{8}1-5[8:1]/7,8,12,,8-4[8:1]/2,1,87,,
{8}34,1,56,8,7-4[8:1]/3-8[8:1],26,37,,
{4}A6h[4:1]/E6h[2:1]/B6h[4:3],A2,E2,B2,
{8}3-5[8:1]/5,2,3/7-4[8:1],8,27,1,{32}1,2,3,4,5,6,7,8,
{4}6-2[8:1]/1-5[8:1],6b/1b,{16}1,,8,,83,,4,,
{16}7-3[8:1]/5,,1-5[8:1],,7,,1,,6,,5,7,4,6,3,,
{16}1/2-5[8:1],,37,,2,,6,,8/7-4[8:1],,62,,7,,3,,
{8}2-5[8:1]/5,6,25,6,7-4[8:1]/4,3,74,3,
{16}2v1[8:1]/5,,3,5,2,,6,,7v8[8:1]/4,,6,4,7,,3,,
{8}62,34,37,56,16,24,{16}3,5,4,,
{4}2b-6[8:1]/6,7qq8[8:3],1b^4[8:1]/7,1,
{4}7b-3[8:1]/3,2pp1[8:3],8b^5[8:1]/2,8,
{32}B1,B8,B7,B6,B5,B4,B3,B2,7x,6x,5x,4x,3x,2x,1x,8x,
{32}E5,E6,E7,E8,E1,E2,E3,E4,6x,7x,8x,1x,2x,3x,4x,5x,
{2}2bx-4[8:1]/6bx-8[8:1],{16}73,,62,,8,1,8,,
{64}A8,B8,Cf,B4,A4,,,,,,,,,,,,{4}2h[4:1]/6h[4:1],,3-7[8:1]/7-3[8:1],
{4}7>6[2:1]/3,B5,,B1,
{64}A1,B1,Cf,B5,A5,,,,,,,,,,,,{4}7h[4:1]/3h[4:1],,6-2[8:1]/2-6[8:1],
{16}26,,,,1x,5x,2x,6x,3b/D8/A8f/E8/B8/E1,,4x,,6b/D2/A1f/E2/B1/E1,,5x,,
{4}2bx-5-3v6[2:1]/6bx,5h[8:1],6h[8:1],7h[8:1],
{4}7x-4-6v3[2:1]/3x,4h[8:1],3h[8:1],2h[8:1],
{4}1b-5^4-8[2:1]/5b,6h[8:1],7h[8:1],7h[8:1],
{4}8-4[8:1]/4,18,7b/B4/B3/A4/A3/E4f/D4,2b/B5/B6/A5/A6/E6f/D6,
{16}7-4[8:1]/4,,,,37,,,1,7,5,6,,2,4,3,,
{16}2-5[8:1]/5,,,,62,,,8,2,4,3,,7,5,6,,
{16}8-4[8:1]/3,,,,18,,,2,7,3,4,,2,6,5,,
{16}1/6,,,,7,1,8,2,8b/D4/A4f/E4/B4/E5,,7x,,1b/D6/A5f/E6/B5/E5,,2x,,
{8}5b^2[8:1]/3,6,75,8,4b^7[8:1]/6,3,42,1,
{8}5bp1[8:1]/7,8,75,6,4bq8[8:1]/2,1,24,3,
{16}7,4,6,2,7,4,6,2,5,2,7,3,5,2,7,3,
{16}6,1,8,3,5,2,7,4,{32}7x,6,5,4,3,2,1,8,7x,6,5,4,3,2,1,8,
{4}7b/Cf,{16}46,7,,3,7,4,8,4,7-4[8:1]*-3[8:1],2,6,,
{16}7,,,,53,2,,6,2,5,1,5,2-5[8:1]*-6[8:1],7,3,,
{16}2,,,,46,7,,2,5,3,6,4,7w3[8:1],3,6,,
{16}7,,,,B5,B1,B7,B3,8bx^5[8:1]*^3[8:1],,,,8bw4b[8:1],,,,
{16}8b,,,,24,1,,8,2,7,3,6,4-1[8:1]*-7[8:1],5,3,,
{16}4,,,,75,8,,1,7,2,6,3,5-8[8:1]*-2[8:1],4,6,,
{16}5,,,,24,1,,7,4,6,3,5,2w6[8:1],6,3,,
{16}2,,,,{32}Ch[32:1],,,,,,,,
{16}8,2,7,1,8,3,6,1,Cf,,,,
{16}43,2,,6,2,6,2,,B7,B4,B6,B3,
{16}Cf,,,,56,,47,,5,6,4,5,3,4,2,5,
{8}1b/B5f/B6/A6/E6,7x,8b/A4/D4/E4f/B4,2x,
{8}1b/A5/D6/E6f/B5,7x,8b/B4f/B3/A3/E4,2x,
{16}1,6,2,7,3,8,2,7,
{32}1,2,3,4,5,6,7,8,1,2,3,4,5,6,7,8,
{8}5b/1b,,56,7,4^1[8:1]/8^5[8:1],,48,,
{8}43,2,5/1-5[8:1],,51,E7,E3,,
{1},E
