&title=Meatball Submarine
&artist=Mili
&first=0
&des=冰雪聪明Cirno酱
&des_5=冰雪聪明Cirno酱
&lv_5=13
&inote_5=(168){4},6<1[4:3],,,,4<7[4:3],
,,,2>5[4:3],
,,,7<4[2:1],
{8},,,,1,
2,3h[4:1],5,{4}6h[4:1],{8}7,8,
{4}1h[4:1],{8}2,3,{4}4-7[8:1],6-2[8:1],
{8},,8,7,{4}6h[4:1],{8}5,4,
{4}3h[4:1],{8}2h[8:1],1h[8:3],{2}8h[4:1],
{4}2/7,{8}8/1,2,6,4,3/7,4,
6,2,8/1,2,6,4,3/7,4,
6,2,1/8,7,3,5,6/2,5,
3,7,1/8,7,3,5,6/2,5,
3,7,2/8h[4:1],3,3,3,4/6h[4:1],2,
3,2,2/8h[4:1],3,3,3,4/6h[4:1],2,
3,2,7/1h[4:1],6,6,6,5/3h[4:1],7,
6,7,5/7,6,2/4,3,4/5,6,
5/4,3,{4}2b/1<6[4:1],{8},4,{4}4-8[8:1],
,7<4[4:1],4>1[4:1],1<6[4:1],
,8>3[4:1],{8},5,{4}5-1[8:1],
,2>5[4:1],5<8[4:1],8>3[4:1],
{8},,5,5,3,3,7,7,
2,2,2/1,2,2/4,2,2/6,2,
{4}2/8,{8}7/1,{16}6,5,,3,{8}4,{16}1,8,2,7,
3,6,4,5,4,3,2,1,8,7,6,5,{4}4-8[8:1],
4/6>3[8:1],1/6b,8,{8}2/8,{16}2,3,
,3,{8}4,{16}6h[16:3],,,8h[16:3],,,{8}1h[8:1],{4}3>8[8:1],
{8},,7/1,{16}7,6,,6,{8}5,{16}3h[16:3],,,1h[16:3],
,,{8}8h[8:1],{4}6<1[8:1],,2-6[8:1],
7-4[8:1],5-1[8:1],{8},8,7,{16}7,6,
,6,{8}5,{16}4/3h[16:3],,,1h[16:3],,,{8}7,{4}6/4,
4/2,1b/8-4[8:1],{8}8/6b,6-1[8:1],,6/4,
{16},,3,2,{4}1b/8-4[8:1],{8}8/6b,6-1[8:1],,6/4,
3,2,{4}4/1>4[8:1],{8},6,8,{16}2,4,
,7,{8}5,{16}3h[16:3],,,1h[16:3],,,{8}7h[8:1],{4}5>2[8:1],
7,{8}1/7,{16}7,6,,6,{8}5,3/5,{16}3,2,
,2,{8}1,{4}8/1>4[8:1],,7-3[8:1],
5>2[8:1],1<6[8:1],{8},3,1,{16}7,5,
,2,{8}4,{16}6h[16:3],,,8h[16:3],,,{8}2,{4}5/3,
5/7,8b/1-5[8:1],{8}1/3b,3-8[8:1],,3/5,
{16},,6,7,{4}8b/1-5[8:1],{8}1/3b,3-8[8:1],,3/5,
6,7,{4}4h[1:3]/8<5[4:7],{1},,{4},,{8},{16}6,
7,{4}8h[1:4],,,,7<4[4:7],
,,,,,,,,,,,,,,,5,
,3,
,7h[4:3],,,4>1[16:3],
8-4[2:1],{8},,,,,,3,
5,4,7h[4:1],,8,
{4}1>4[8:1],6-2[8:1],{8},5,{16}4<7[4:1],,,,
,,,,{4}4>1[4:1],,8,
8<5[16:3],4-8[2:1],{8},,,,,,2/4,
3,7/5,6,4/3,2/1,
{4}8/7,6b/5>2[4:1],{8},8,{4}8-4[8:1],
,3>8[4:1],8<5[4:1],5>2[4:1],
,4<7[4:1],{8},1,{4}1-5[8:1],
,6<1[4:1],1>4[4:1],4<7[4:1],
{8},2,2,3,5/4,6,5/4,2,
5/4,7,4/3,1,5/6,8,3/4,7/6,
1/3,4/5,6/8,{16}1,7,4,5,{8}2,{16}2,1,5,6,
8,7,4,5,{8}1b,2,3,4,5/7,8/1,
2/4,5/7,1b/8b,2,5/3,6,8/7,{16}5,3,
,7,{8}1,2/8,{16}4,6,,2,{8}8,7/1,6,
8/7,1,2/4,{16}5,4,,7,{8}7,8/6,{16}4,5,
,2,{8}2,1/3,4,5/4,6,8/6,1,
{16}1/7,2,3/7,4,{8}5/1,7,6/1,2,8/3,{16}6,5,
,7,{8}1,2/8,{16}3,4,,2,{8}8,7/1,6,
5/4,3,{4}8b/2-7[8:1],{8}2/8b,6-3[8:1],,6/8,
{16},,6,7,{4}8b/2-7[8:1],{8}2/8b,6-3[8:1],,6/8,
1,2,3/4,6,4/3,1,8/7,{16}5,3,
,7,{8}8,2/1,{16}4,6,,2,{8}1,7/8,6,
8/7,1,2,{16}7,5/7,,3,{8}3/4,7,{16}2,2/4,
,6,{8}6/5,8,7,4/6,3,{16}8/2,7,2/6,5,
8,7,6,5,{8}4/8,7,6/1,2,8/3,{16}6,6/5,
,1/7,{8}1/7,8/2,{16}3,5/3,,2/8,{8}2/8,7/1,6,
3/5,2,{4}1b/7-2[8:1],{8}7/1b,3-6[8:1],,3/1,
{16},,3,2,{4}1b/7-2[8:1],{8}7/1b,3-6[8:1],,3/1,
8,7,{4}6h[1:4]/4>1[4:7],,,,,,,,,,,,,,,,4h[4:15],
,,,3>8[2:5],
E
