&title=紅に染まる恋の花 (重音テトver.)
&artist=幽閉サテライト(remixed by 4696botan )
&first=0
&des=サツマイモの味のMurasa
&lv_5=13+
&des_5=サツマイモの味のMurasa
&inote_5=
(140){4},{8},,,,,,6bx,
5,4,3h[32:19],,,,,6,
5,4,3h[32:19],,,,,6,
5,4,3,6,5,4,3,
6,5,4,3h[32:19],{4}6x-3[32:3],6x,
{8}4x/6x,7,6/4,3,6/4,8,6/4,2,
5/3,6,5/3,2,5/3,7,5/3,1,
6,6,7/5,7/5,8/4,8/4,1/3,3/1,
{16}8,4,8,4,7,3,7,3,6,2,6,2,{32}5x,4x,3x,2x,1x,8x,7x,6x,
{2}5bx/Ch[8:5],{4}8w4[8:1],8b,
{8}2b/6b,{16}2,6,{8}2,2,3/6,3,3/7<5[8:1],3,
7/4,4,4/8-6>5b[8:1],4,4/8,4,7x/4x,4,
7/3,{16}7,3,{8}7,7,6/3,6,6/2>4[8:1],6,
2/5,5,5/1-3<4b[8:1],5,1/5,5,5/2,3,
4/7,{16}4,7,{8}4,4,3/6,3,6/2>4[8:1],2,
2/7<5[8:1],7,7/1-3<4b[8:1],1,1/8-6>5b[8:1],8,8/1,2,
3b/8,{16}2,6,{8}1b,{16}7,3,{8}8b,{16}2,6,{8}1b,1/5,
{32}1,2,3,4,5,6,7,8,1-5b[8:1],2,3,4,5,6,7,8,{4}1bx-3<4b[8:1]*-7<6b[8:1],1bxw5b[8:1],
{1}Cf/1b>8<1b[4:13],
{8},,,,,,,,E6,
B6,{4}B7,{8}E4,B3,{4}B2,
{8}E5,C,{4}E1,{2}Ch[4:1],
{8}6/3,{16}6,2x,{8}7-5[8:1],7,2-4[8:1],1,7<4[8:1],8,
1-3[8:1],8xqq5b[2:1],1,8,{4}4x-2<1b[8:1],4bx,
{8}5x/1x,{16}1x,5x,{8}2-4[8:1],2,7-5[8:1],8,2>5[8:1],1,
8-6[8:1],1-5[8:1],8-4b[8:1],1,{4}8w4b[8:1],8b,
{8}6b/1b,{16}1,2,{8}3x/7x,3,3/B7,3,3/8-6[8:1],3,
4/8-2[8:1],4,4/8-6[8:1],4,4x/8x,3,2x/7x,3,
3/8,{16}8,7,{8}6x/2x,6,6/B2,6,{4}5/1-7[16:1],
{32}5x/1-3[16:1],4x,{16}3x,{32},,,,5x/1-7[16:1],6x,{16}7x,{32},,,,5x/1bxw5b[8:1],4x,{16}3x,,,{4}1b,
{8}7bx/3bx,{16}7,6,{8}5x/3x,5,6/4,7,3/8-6[8:1],4,
5/8-2[8:1],4,3/8-6[8:1],4,5x/8x,4,2,2,
2/7,{16}7/2,6/3,{8}5x/4x,6x/3x,7x/2x,7x/2x,{4}1x/8x<6[16:1],
{32}1x/8x-4[16:1],2x,{16}3x,{32},,,,1x/8x<6b[16:1],2x,{16}3x,{32},,,,1x/8x-4b[16:1],2x,{16}3x,{32},,,,1x,2x,{16}3x,{32},,,,1,
2,3,4,5,6,7,8,1,2,3,4,5,6,7,8,1,2,3,4,5,6,7,8,1,2,3,4,5,6,7,8,
{2}1bx/Cfh[2:1],{4}B2/E3/B3,8-6[8:1]/1-6[8:1],
8b-3[8:1]/1b-3[8:1],8/1-4[8:1],{8}1-6[8:1],6-1[8:1],5-8[8:1],4-1b[8:1],
5x,4>5[8:3],{4}4xh[4:1],,1x-3[8:1]*-4b[8:1],
1-6b[8:1]*-7[8:1],1x,{8}4-1[8:1],7-2[8:1],4<2b[4:3],7,
{4}4xh[2:1],,,4w8b[8:1],
4b,{8}7x/2x-7[8:1],6/3,7/2,6,5,6pp4[8:3],
3qq5[4:1],6bx,{4}3bx,E5f,{8}6,7,
8/2,1,2/7,6>3[8:1],3-6[8:1],6V48[4:1],1x,8x<1b[32:11],
{32}8xh[8:3],,,,,,,,,,,,,,,,,8x,7x,6x,5x,4x,3x,2x,{4}1x-3[8:1]/8x-3[8:1],
8-6[8:1]/1-6[8:1],8-5[8:1],{8}8-3[8:1],3-8[8:1],4-1[8:1],5-8[8:1],
4x,5x<4b[8:3],{4}5xh[32:15],,8x-6>5b[8:1]*-5[8:1],
{2}8x-2>3b[8:1]*-3[8:1],{8}7-2b[8:1],3-6-3[4:1],7,3<2[2:1],
Cf,,,,,6x,7x-5[8:1],8x-4[8:1],
7x-3[8:1],8x-2[8:1],7x-5[8:1],8x-4[8:1],7x,8x,{32}7x,6x,5x,4x,3x,2x,1x,8,
{4}7xqq3b[2:1],7bxh[32:15],,A3f,
{8}5/1,5,6/2,6,{16}7,3,8,4,7,3,8,4,
7,3,6,2,5,1,5,1,{32}5,4,3,2,1,8,7,6,{4}5/1xw5[16:1],
{1}Cf/1bx>8b[4:7],
,Ch[1:1],
{8},,,,,,,,6/3,
{16}4,5,3,6,2,7,{24}1,8,1,8,1,8,{4}1b-5[8:1],
{8}1b/8b,8,7-2[8:1],6,4/7,4,5/3,{24}5,4,5,
{8}3h[32:23],{32},,,,,,,,1,8,7,6,{4}5bx-1[8:1],5b,
{24}2,3,4,8,7,6,2,3,4,8,7,6,1,2,3,7,6,5,1,2,3,7,6,5,
{32}2bx,3,4,5x,8bx,7,6,5x,2bx,3,4,5x,8bx,7,6,5x,{4}1b-5b[8:1],1b,
{24}6,4,6,4,6,4,{8}7h[32:7],3,{24}2,5,2,5,2,5,{8}2h[24:5],6,
7xh[8:5],{16},,,,3x,2x,{4}1xh[16:13],6h[8:1],
{8}5h[16:5],{16},,,,5/1,6/2,7h[8:1]/3h[8:1],,,2h[8:1]/6h[8:1],,,{8}7/1,
{32}1bx,2,{16}3,{32}5,6,{16}7,{32}1bx,2,{16}3,{32}5,6,{16}7,{4}1bxw5[8:1],1b,
{1}E1/B7/B6/E6/B5/E5/B4/E7/E4/E3/B2/E2/B1/B8/E8/B3/Ch[16:1],
{4},,,,,,,,,,,7bx/2bx,
{8}7h[8:3],4,5xv2[8:1],5x,7,7,{4}8<6[8:1]/1p5[8:1],
{64}1b>3[8:1]/8bq4[8:1],E8f,,,,,,,,,,,,,,,8b<6[8:1]/1bp5[8:1],E2f,,,,,,,,,,,,,,,8bq4[8:1]/1b>3[8:1],E8f,,,,,,,,,,,,,,,8b/1b,E2f,,,,,,,,,,,,,,,{8}6xh[8:3],
{24}4x,3x,2x,{8}1x-5[8:1],1x,7,8,{4}1b<7[8:1]*-7[8:1],
{64}1b-3[8:1]*>3[8:1],D1f,,,,,,,,,,,,,,,1b-6[8:1]*<6[8:1],D2f,,,,,,,,,,,,,,,1b-4[8:1]*>4[8:1],E1f,,,E8,,,E7,,,,,,,,,1b,E2f,,,E3,,,E4,,,,,,,,,{8}8xh[32:3],
{16}3,7,2,6,1,5,1,6,1,7,1,8,1,8,
2,2,7,7,2,2,6,6,2,2,5,5,1x,1x,5x,5x,
{24}1,5,1,5,1,5,1,5,1,5,1,5,{32}1,2,3,4,5,6,7,8,1,2,3,4,5,6,7,8,
{4}1bxh[2:1],6x,7x,1-6[8:1]/8v6[8:1],
8b-3[8:1]/1bv3[8:1],8/1v4[8:1],{8}1v6[8:1],6v1[8:1],5<8[8:1],4-8b[8:1],
5x,4qq8[8:3],{4}4xh[4:1],,7x<5[8:1]*-5[8:1],
7x-2[8:1]*>2[8:1],7,{8}4-7[8:1],4-1[8:1],4<2b[8:3],4x,
{2}4xh[4:1],{32}3x,4x,5x,6x,7x,8x,1x,2x,{4}3xw7b[8:1],
3b,{8}1>3[8:1],5<7[8:1],1v4[8:1],5v8[8:1],1xw5[8:1],5xw1b[8:1],
{4}1x>7<1b[2:1],{8},,,,7x,8x,
4,8,4-2[8:1],8-6[8:1],4-6[8:1],8-2[8:1],4x<2b[8:3],8x,
{64},A4f,{4},{16},,,{32},1x,8x,7x,6x,5x,4x,3x,2x,{4}1x-5[8:1]/8x-4[8:1],
1b/8b,{8}3-8[8:1],7-4[8:1],3-6[8:1],7-2[8:1],3x-8[8:1],7x-4[8:1],
3x<1b[8:3],7x,{4}3x,{8},,6,7,
{4}8bh[4:1],{8}4>2[8:1],8<6[8:1],4-1[8:1],8-5[8:1],4>7b[8:3],8x,
{2}4xh[4:1],{32}6x,5x,4x,3x,2x,1x,8x,7x,{4}6bxw2b[8:1],
6b,{8}4/8,3,7/2,6,5/3,2,
4/6,8,6/4,2,7/3,7/3,8/1,1/8,
{16}2,8,3,7,4,6,3,5,2,4,1,5,8,6,1,7,
{32}1bx,2,3,4,1bx,8,7,6,1bx,2,3,4,1bx,8,7,6,1bx,2,3,4,5,6,7,8,1,2,3-6-3[16:43],4,5,6,7,8,
{1}A1f,
,7h[1:1],
{8}E2,E3,E4,E5,8,7,6-3b[1:1],5,
{32}E3,E4,{1},{4},,,{16},,,{8}6h,
5,{32}4,,,,{8}3,6h,5,4,3,
6h,5,4h,3,6h,5,4h,3,
7h,5,4,2,7h,5,4,2,
7h,5,4h,2,7h,5,4h,2,
6h,4,5,3,6h,4,5,3,
6h,5,3h,4,6h,4,5h,3,
7h,4,5,2,7h,4,5,2,
{32}7,,,,,5,,,,,{16}2,{64},,,,,,,4,,,,,,,,,,,{32}7b,,,,,,4b,,,,,,5b,
,,,,,2bp7<6-3>2b[16:53],{64},,,,,,,,,,,,,,,,E2,B1,{32}B8,
E
