&title=you're Nxt
&artist=uma,モリモリあつし
&first=-0.05
&des=KOCZ
&lv_5=14+
&inote_5=(195)
{8},,,,,,,
3h[8:3]/5,,,4h[8:3],,,5h[8:3],,
,6h[8:3],,,C,,,,
7h[8:3]/8,,,5h[8:3],,,4h[8:3],,
,2h[8:3],,,C,,,,
4h[8:3],,,6h[8:3],,,2h[8:3],,
,8h[8:3],,,C,,,,
5h[8:3],,,3h[8:3],,,7h[8:3],,
,1,,,8bx-4[8:1]/1bx-5[8:1],2bx/7bx,{16}8bx/1bx,C,,,
{8}2h[4:1],5,5,3h[4:1],6,6,4h[4:1],7,
7,3,8,{16}2,1,{8}2,8,3,3,
7h[4:1],4,4,{16}6,5,{8}6h[8:1],1h[8:1],7h[8:1],2h[8:1],
8,12,12,{16}3,4,{8}3h[8:1],5h[8:1],4h[8:1],6,
56,,78,,12,,34,34,
25,,18,,56,,34,34,
2,12,7,87,{16}1,6,1,6,2,7,2,7,
{8}38,27,1w5[8:1]/6,27,1b,,,,
1-5[8:1]/5,,61,6-2[8:1],,63,3-8[8:1],,
37,7-3[8:1],,75,5>2[8:1]*<8[8:1],,5b,,
1q5[8:1],,18,7>2[8:1],,75,4p8[8:1],,
47,6>3[8:1],,68,1-4[8:1]*-6[8:1],,1b,,
35,2,34,{16}5,4,{8}6,57,{16}4,5,3,4,
{8}2,8,21,3,45,6,45,3,
5bh[1048:1],{32}2x,3,4,5,{8}7bh[1048:1],{32}2x,1,8,7,{8}5bh[1048:1],{32}2x,3,4,5,6,7,8,1,2,3,4,5,
{8}6x/8x,7,1s5[8:1]/8z4[8:1],2,1b/8b,,{16}A3,A2,
A1,A8,A7/5xh[1:1],,,,,,,,,,,,,,
{8},3h[1:1],,,,,,,
,6h[1:1],,,,,,,
,3,,,,,,,,
{1}1v3[2:1]/8-4[2:1],8>4[2:1]*<4[2:1],1<4[2:1],7z3[2:1],
{8}4b/2h[8:3],,,8,81,,,,
2h[8:3]/4,,,8<5[8:1],3,,2,,
8/6h[8:3],,,4,54,,3,,
2h[8:3]/6,,,7<4[8:1],3,,2,,
2b/8h[8:3],,,1,1/7<4[8:1],,2,,
3h[8:3],,,8,8/2-5[8:1],,72,,
8bv3[8:1],,48,5b>2[8:1],,57,6bv1[8:1],,
{16}2,3,4,,8,7,6,,4,5,3,6,2,7,1,8,
{8}2bx/B6/B5/E6,,,6bx/B2/B1/E2,,,4bx/B8/B7/E8,,
,5,4,3,6,5,4,3,
5bx/B1/B2/E2,,,3bx/B7/B6/E7,,,6bx/B2/B3/E3,,
,4bx/B8/B7/E8,,,,,2,6,
{16}5b/1b,,2,4,2,,3b/7b,,6,4,6,,5b/1b,,,,
{8},2,1,8,2,1,8,7,
{16}6b/4b,,3,5,2,,3b/8b,,7,1,6,,2b<3b[8:6]/C,,,,
,,B7/B6/E7f,,,,,,,,,,,,,,
{8}1-5[8:1],8,1,7-4-2-5[8:3],8,7,1,1,
,2-6[8:1],4,2,5V73[4:1],7,5,8,
1b,2,5,3,4/7b,6,5,6,
{32}2bx,,,,E6,B5,B4,,1bx,,,,B7,C,B3,,2bx,,,,E7,B6,B5,,3bx,,,,2x,,,,
{16}1-5[8:1],,1,,7>2[8:1],,7,,3v6[8:1],,3,,5,,5,,
8,7,1,6,2,5,3,4,{32}2,1,8,7,6,5,4,3,2,1,8,7,6,5,4,3,
{8}2b-6[8:10],,,8h[1048:1],,,3h[1048:1],,
,7h[1048:1],,,,,{16}1,2,3,4,
{16}5bv2[8:1]/1,,,7,5,,7,,6,3,6,3,7,4,7,4,
8b-5[8:1],,,2,8,,1,,{24}1x,2,3,4,5,6,1x,2,3,4,5,6,
{16}7-3[8:1]/1,,,2,7,,1,,2,5,3,6,4,7,5,,
4b/6b,,,7,8-3[8:1],,1,,2b/8b,,,,5,6,7,8,
1b-6[8:1],,,2,1,,2,,3,5,4,6,3,7,2,8,
1b-4[8:1],,,7,1,,6,,{24}7x,8,1,2,3,4,7x,8,1,2,3,4,
{16}6,5,6,5,7,4,7,4,8x,{32},,2,3,4,,6x,,,,2,1,8,,
{12}5h[1024:1],1,7h[1024:1],3,1h[1024:1],5,7w3[8:1],,,,,,
{16}28,,28,,37,,37,,4,6,3,5,2,6,1,,
7b/8b,,1,8,2,,31,,{24}2,1,8,7,6,5,2,1,8,7,6,5,
{16}4b/2b,,3,,46,,57,,6,5,7,4,6,,3,,
25,,3,4,2,,18,,{24}2x-6[8:1],3,4,7x-4[8:1],6,5,2,,,7,,,
{16}8,,17,,26,,37,,{12}8,8,8,4,4,4,
7h[1024:1],5,1h[1024:1],3,5h[1024:1],1,{16}8s4[8:1]*-4[8:1],,,,,,,,
3,5,3,5,2,6,2,6,{32}1hb[1024:1],,,,7,6,5,4,2hb[1024:1],,,,8,7,6,5,
{16}3-7[8:1],,7-3[8:1]*-4[8:1],,3-8[8:1],,,,,,,,,,,,
{8}24,3,5,4-2-5[4:1]/6,,7,7,,
47,6,3,2/5-2-4-8[8:3],,1,1,1,
2b,3,47,6,3b,2,15,6,
37,48,15,4b<6-3[4:1]/8b>2-7[4:1],,,,,
28,3,5,4/6V84[8:2],,3,2,2,
{12}5,3,3,6,4,4,7-4[8:1],5,5,7,,,
{16}3,5,3,5,2,6,2,6,7v4[8:1]/1v4[8:1],,,,71,,,,
{8}53,2,6p4[8:3]/4>6[8:3],7,6b/4b,,,,
{4}3h[1:1],,B4/B3,,6h[1:1],,B6/B5,,
4h[1:1],,B4/B3,,5h[2:1],,B6/B5,,
B6/B7/E7/B2/B3/E3,,B8/B1/E1/B4/B5/E5,,B7/B8/E8/B3/B4/E4,,B1/B2/E2/B5/B6/E6,,
B3/E3/E4/B7/E8/E7,,B2/E3/E2/B6/E6/E7,,Ch[8:4]/E7/B7/B6/E3/B2/B3,,,,
{16}1x,2,3,4,75,,,,8x,7,6,5,42,,,,
1x,2,3,4,58,,,,8x,7,6,5,41,,,,
1x,2,36,47,58,,,,8x,7,63,52,41,,,,
5x,6,73,84,15,,,,4x,3,26,15,84,,,,
34,,2,,18,,7,8,6h[8:1],,,1h[8:1]/8h[8:1],,,34,,
56,,7,,38,,2,1,3h[8:1],,,1h[8:1]/8h[8:1],,,57,,
4,6,4,6,3,5,3,5,2,6,2,6,1,7,1,7,
2b-6[8:1],,8b-4[8:1],,2b,,8b,,,,{16}3,5,2,6,3,7,
{16}4b,6,4,6,3,5,3,5,2b,4,3,7,5,6,1,4,
{16}3b,8,3,8,2,7,2,7,1b,5,2,8,3,7,2,6,
{16}3b,5,3,5,2,6,2,6,1b-5[8:1],,7b-3[8:1],,1b,,7b,,
8,1,2,3,48,5,6,7,84,,6b,,2b,,8b,,
4b,7,4,7,3,6,3,6,1,5,3,8,4,6,2,4,
{16}3b,5,3,5,2,6,2,6,{12}1,1,1,28,28,28,
{16}3,7,3,7,4,6,4,6,{32}3bxh[1048:1],,,,7,6,5,4,2bxh[1048:1],,,,7,8,1,2,
{16}4bxh[1048:1],,7,,3-6[8:1]/5<8[8:1],,2,,53,,,,{48}4b,,,,,,,,,,,
{16}1,8,2,,37,,{24}4,5,3,{16}4,,1b,,8b,,2b,,
2<7[8:1],1,3,,{24}7,6,5,{16}4-8[8:1],,,,2b,,3,,4,,
4,7,3,6,2,5,1-5[8:1],,,,1>4[8:1]/8,,7,,1,,
7,8,1,2,3,4,5,6,1,2,38,7,6/2-6[8:1],3,47,6,
5/Cf,,,,,,,,,,,,,,,
,,,,,,,,,,,{48},{16}27,,36,,
45,,3,4,3,4,1,8,1,8,{24}2,3,4,1,2,3,7,6,5,8,7,6,
{16}5bx/1bx,,3-6[8:1]/7-2[8:1],,26,,3b/7b,,,,{16}A1,A8,
A7,A6,A5,A4f/3hx[16:33],,,,,,,,,,,,
,,,,,,,,,,,,,,,
,,,,,,
{8}6h[8:3],,,5h[8:3],,,4h[8:3],,
,3-6[8:1],,,8,,,,
3h[8:3],,,4h[8:3],,,5h[8:3],,
,6-2[8:1],,,,,,,
8h[8:3],,,4h[8:3],,,6h[8:3]
,,
,Ch[4:1],,,,,,,{16},,
