&title=- W-B-X ~W-Boiled Extreme~
&artist=上木彩矢
&first=0
&des=楓
&clock_count=4
&lv_5=13+
&inote_5=(140)
{1},
{4},A3/E4,,A6/E6,
{4},A2/E2,,A7/E8,
{4},B2/B3/E3,,B7/B6/E7,
{4},C,
{8},
{16}4x,5,
{4}36,
{8}2b,1,8^2-4[16:3],7,6h[4:1],,C,,
{8}3,4,5^3-6[16:3],6,7hb[4:1],,C,,
{4}3>6[2:3]b,4,5,
{8}4,4h[8:3],
{8},,,Ch[8:3],
{2},
{8},3,4,5-8[8:1],6,
{16}3,3x,
{8},2,
{16}2,1,,8,
{8}1,7-4[8:1],8,
{16}1,1h[16:3],
{4},
{8},4,3,2-4^3[8:1],1,
{16}8,8hx[16:3],
{8},2,
{8}1,7,5pp1[4:1]b,3,
{2}3h[4:1],
{8},3,4,5-8[8:1],6,
{16}3,3x,
{8},2,
{16}1,7,1,7,
{8}5xV37-1[8:3],6,
{2}2h[4:1],
{8},4,3,2-4^3[8:1],1,
{16}8,8hx[16:3],
{8},2,
{16}1-5[8:1],,,5,,,
{8}6h[4:1],,7-3[8:1]b,8,1,
{8}2b,2,28,
{16}2x,1,2,4,3,,
{8}5,64,
{8}7,7,71,
{16}7x,8,
{8}6,5,64,3,
{8}3bx-1[8:1],4,5x-7[8:1],4,3x-1[8:1],4,5x,4,
{8}5x-2[8:1],6,8x/5x-8[8:1],7,2x/5x-2[8:1],3,5x/8x,7,
{8}1b/7b,2,38,
{16}3x,4,3,2,
{8}3,35,4,
{8}82,7,61,
{16}6x,5,6,7,
{8}6,64,5,
{8}1b^4[8:1],1^6[8:1],1x-4[8:1],1x-6[8:1],1xv4[8:1],1xv6[8:1],1x,1x,
{1}Cf/B3/B4/B7/B8,
{8}1b-7[8:1]/3b,2,13,
{16}4x,5,4,3,
{8}4,35,4,
{8}2/6-1[8:1],7,6/2-5[8:1],3,2/6-1[8:1],7,6/2,3,
{8}4hb[1:1],A1,E8,B1,E7,B2,B6,B3,
{4}B5f,
{8}3^5v2[4:1],2,1hx[8:1],,1,,
{8}4b-6[8:1]/2b,3,42,
{16}1x,8,1,2,
{8}1,28,1,
{8}3/7-4[8:1],6,7/3-8[8:1],2,3/7-4[8:1],6,7/3,2,
{8}2b-5[8:1],2,1/2x,8,8-4[8:1],8,18,2,
{8}2^5[8:1],3,28,
{16}8x,6,7,5,6,5,6x,4,5,4,
{8}3b-8[8:1],3,3x/5,5,5-1[8:1],5,45,4,
{8}4-2[4:1],4,2-6[4:1],2,6-8[4:1],6,8v5[8:3],8,
{2}Cf,
{16}48,,,37,,,2x/6x,,
{8}3b,4,5^3-1[16:3],6,7h[4:1],,C,,
{8}2,1,8^2-7[16:3],7,6hb[4:1],,C,,
{4}2-4^5-7[2:3]b,1,8,
{8}1,1h[8:3],
{8},,,Ch[8:3],
{2},
{8}3bqq8[8:3]/7qq4[8:3]b,1/5b,
{2},
{8},Cf/B1/B2/B3/B4/B5/B6/B7/B8/E1/E2/E3/E4/E5/E6/E7/E8,
