&title=再生不能
&artist=ろくろ,鹿乃
&first=0
&lv_5=13+
&des_5=-NICOLABULA
&inote_5=
(236){4},{1},{4},,,6h[4:1],
5h[4:1],{8}6,5,,5,
,5,,7,5,6,4,5,
{4}3h[4:1],4h[4:1],{8}3,4,,4,
,4,,2,{4}4,3h[4:1],
8,8,{8}8,1,,8,
,8,,8,2,7,3,6,
{4}6h[4:1],1,{8}1,8,,8,
,8,,8,{2}1,
{4}4h[4:1]/1-4[8:1],1,{8}5/6,7h[8:1]/4h[8:1],,7/4,
,7/4,,6,3,5,2,4,
{4}4h[4:1]/1-4[8:1],1,{8}6/5,7h[8:1]/4h[8:1],,7/4,
,7/4,,6,{4}3-6[8:1],3/8,
5h[4:1]/8-5[8:1],8,{8}4/3,2h[8:1]/5h[8:1],,2/5,
,2/5,,3,6,4,7,5,
{4}5h[4:1]/8-5[8:1],8,{8}4/3,2h[8:1]/5h[8:1],,2/5,
,2/5,,3,{4}6-4[8:1],1/6,
1-3[8:1],{8}1,8-4[8:1],,8,{4}3-1[8:1],
3/7-5[8:1],{8}7,8-4[8:1],,8,{4}5-7[8:1],
5/1-3[8:1],{8}1,8-4[8:1],,8,{4}3-1[8:1],
3/7-5[8:1],{8}7,8-4[8:1],,8,{4}5-8[16:3],
5/3-8[8:1],{8}3,7-4[8:1],,7,{4}2-5[16:3],
2/8-5[8:1],{8}8,1-4[16:3],,1,{4}7-4[8:1],
7/2-5[16:3],{8}2,8-5[16:3],,8,{4}1-4[16:3],
{1}1/7s3[2:1],
{4}4/2,{8}3,5-8[16:3],,5/7,{4},5/7,
{8}6,4-1[16:3],,4/2,{4},4/2,
{8}3,5-8[16:3],,5/7,{4},5/7-4[4:1],
4-1[4:1],{2}1h[4:1],
{8}4/2,2,3,5-8[16:3],,5/7,{4},{8}5/7,
7,6,4-1[16:3],,4/2,{4},{8}2/5,
5,3,3,6,6,{4}7-2[8:1]/3-6[8:1],
{2}7/3,4h[4:1]/8h[2:1],
{4}3h[4:1],{16}8x,7x,6x,5x,{4}2h[4:1],{16}7x,6x,5x,4x,
{4}1h[4:1],{16}6x,5x,4x,3x,2x,1x,8x,7x,{4}6x,
6h[4:1],{16}1x,2x,3x,4x,{4}7h[4:1],{16}2x,3x,4x,5x,
{4}8h[4:1],{16}3x,4x,5x,6x,7x,8x,1x,2x,{4}3x,
5/3h[4:1],{16}5,3,5,3,{4}4h[4:1],{16}2,4,2,4,
{4}3h[4:1],{16}5,3,5,3,6,4,6,4,7,5,7,5,
{4}8-5[8:1],5-2[8:1],1-4[8:1],4-7[8:1],
8<4[4:1],4>8[4:1],8V64[4:1],4V28[4:1],
{2}8h[4:1],{8}7/2,7/2,,4/5,
,5/4,{4}7/2,1-4[8:1]/5-8[8:1],5/1,
3/7-5[8:1],{8}7/3,1-3[8:1],,1/4,{4}4,
{8}5,5,6/3-5[8:1],3,,8,8,5,
{4}4h[4:1]/7-5[8:1],{8}7,1-3[8:1],,1/4,{4}4<7[8:3]*q8[8:3],
{2}4,{4}1-4[8:1],1/8-5[8:1],
8/2-5[8:1],2/7-4[8:1],7/8V25[4:1],8,
1V74[4:1],1,8>5[4:1],8,
1<5[4:1],5>1[4:1],1V75[4:1],5V31[4:1],
1,{8}4,4,{4}3-6[8:1]/7-2[8:1],7/3,
5h[4:1]/8-6[8:1],{8}8,2-4[8:1],,2/5,,6,
6,3,{4}5/3-8[8:1],3/4,5-8[8:1],
5/4-1[16:3],4/5-8[8:1],5/3-8[8:1],3/4-7[8:1],
4/2>6[16:3],2,1V74[4:1],1,
8V25[4:1],8,1<4[4:1],1,
8>4[4:1],8/4<8[4:1],8V24[4:1],4V68>4b[8:5],
{8}8,{4},{8}6,{2}6h[2:1],
{4}4-2[8:1],4/6-8[8:1],6/5-2[8:1],5,
4/7-5[8:1],{8}7/4,4,3,5,5,6/2-5[8:1],
,2/8h[4:1],{4},{8}3/7,3,2/6,6,
{4}5/1-3[8:1],1/7-5[8:1],{8}7/4,4,3,7x-4[8:1],
,2x-5[8:1],,8x-5[8:1],{2}1x-4b[8:1],
{4}5,{8}3/5,3,2/6,6,1,1/7-4[8:1],
,7/1h[4:1],{4},{8}2/6,2,3/7,7,
{4}4/8-5[8:1],8/2-5[8:1],{8}2/7,6,6,3x-5[8:1],
,7x-5[8:1],,2x-6[8:1],{2}8x-4b[8:1],
{8}1xh[8:3],{4},{8}Ch[8:5],{2},{8}1h[8:3],
{4},{8}Ch[8:5],{2},{8}1h[8:3],
{4},{8}Ch[8:5],{2},{8}1h[8:3],
{4},{8}Ch[8:5],{2},{8}1h[8:3],
{4},{16}A6,B6,{2}Ch[2:1],
{8}2h[8:3],{4},{16}A8,B8,{2}Ch[2:1],
{8}1h[8:3],{4},{16}A6,B6,{2}Ch[2:1],
{8}2h[8:3],{4},{16}A8,B8,{2}Cfh[2:1],
{8}1b,{4},{8}4/3h[8:3],{4},2h[8:3],
{8},1h[8:3],{4},{8}8,8,7/1,1,
6/8b,{4},{8}5/6h[8:3],{4},7h[8:3],
{8},8h[8:3],{4},{8}1,1,2/8,8,
3/1b,{4},{8}4/3h[8:3],{4},2h[8:3],
{8},1h[8:3],{4},{8}8,8,7/1,1,
8b/6,{4},{8}5/6h[8:3],{4},8-4[4:3],
{1}8h[4:3],
{8}3b/2h[8:3],{4},{8}1h[8:3],{4},8h[8:3],
{8},7h[8:3],{4},{8}5,5,6/4,6,
5b/7h[8:3],{4},{8}8h[8:3],{4},7h[8:3],
{8},2h[8:3],{4},{8}4,4,2/5,2,
4b/1h[8:3],{4},{8}8h[8:3],{4},7h[8:3],
{8},6h[8:3],{4},{8}3,3,{16}4/6,{8},{16}3/6h[4:1],
,,,E3,E4,E5,,7h[4:1],,,,E2,E3,E4,E5,8h[4:1],
,,,E2,E3,E4,{8}E5,{2}5bx/1bxh[4:17],
{1},,{4}5,
{8}5,4,,5,{4}4,
5,{8}5,4,,5,{4}4h[1:2],
1,{8}1,8,,1,{4}8,
1,{8}1,8,,1,{4}8,
5/1,{8}1/5,8/4,,1/5,{4}8/4,
1/5,{8}5/1,8/4,,1/5,{4}8/4,
7-5[8:1],{8}7,3-1[8:1],,3,{4}7-5[8:1],
7/2-4[8:1],{8}2,6-8[8:1],,6,{4}2-4[8:1],
2/7-5[8:1],{8}7,3-1[8:1],,3,{4}7-5[8:1],
7/2-4[8:1],{8}2,6-8[8:1],,6,{4}2h[4:1],
7-5[8:1],7/3-1[8:1],3/6-8[8:1],6/4-1[8:1],
4/5-8[8:1],5/3-8[8:1],3/6-1[8:1],6/4-1[8:1],
4/5,6/3,{8}5/4,5/4,3/6,3/6,
,2/7,{4}7s3[8:3]/2z6[8:3],{2}7/2,
{4}4h[4:1]/7-5[8:1],{8}7,1-3[8:1],,1/4,{4}4,
{8}5,5,3/6,3-8[16:3],,3/7,{4},{8}4/7-5[8:1],
4,7,1-3[8:1],,1/4,{4}4<7[8:3]*q8[8:3],
{2}4,{4}1-4[8:1],1/8-5[8:1],
8/2-5[8:1],2/7-4[8:1],7/8V25[4:1],8,
1V74[4:1],1,8>5[4:1],8,
1<5[4:1],5>1[4:1],1V75[4:1],5V31[4:1],
1,{8}4,4,{4}3-6[8:1]/7-2[8:1],7/3,
{8}5/8-6[8:1],5,8,2-4[8:1],,2/5,,6,
6,3,3-8[8:1],5,{4}3/5,5-8[8:1],
5/4-1[16:3],4/5-8[8:1],5/3-8[8:1],3/4-7[8:1],
4/2>6[16:3],2,1V74[4:1],1,
8V25[4:1],8,1<4[4:1],1,
8>4[4:1],4<8[4:1],8V24[4:1],4V68b[4:1],
8>4b[4:1],4<8b[4:1],8V24b[4:1],4,
5b-7[8:1],5/3-1[8:1],3/4-7[8:1],4,
5/2-4[8:1],{8}2/5,5,6,4,4,3/7-4[8:1],
,7/1h[4:1],{4},{8}6/2,6,7/3,3,
{4}4/8-6[8:1],8/2-4[8:1],{8}2/5,5,6,2x-5[8:1],
,7x-4[8:1],,1x-4[8:1],{2}8x-5b[8:1],
{4}4,{8}6/4,6,7/3,3,8,8/2-5[8:1],
,2/8h[4:1],{4},{8}7/3,7,6/2,2,
{4}5/1-4[8:1],1/7-4[8:1],7/2-5[8:1],2/8-6[8:1]*-5[8:1],
8-2[8:1]*-3[8:1],8w4[4:1],{2}8b,
{4}6/3,6/4,{8}6,5,6,7/4,
,4/7h[4:1],,5,6,4,5,3,
{4}2/4,5/2,{8}3,4,3,5/2,
,5/2,,3,{4}4,3/5,
6/3,6/4,{8}6,5,6,7/4,
,4/7h[4:1],,5,6,4,5,3,
{4}2/4,5/2,{8}3,4,3,5/2,
,5/2,,3,{4}4,5/2h[4:1],
{8}7-5[8:1],2,7,2,8-6[8:1],3,8,3,
7-5[8:1],2,7,3,8-6[8:1],3,8,2,
2-4[8:1],7,2,7,1-3[8:1],6,1,6,
2-4[8:1],7,2,7,1-3[8:1],6,1,6,
7-5[8:1],2,7,2,7-1[8:1],4,7,4,
7-5[8:1],2-4[8:1],7,2,7-1[8:1],2-5[8:1],7,2,
{16}7s3[2:1]*z3[16:7],{4},,,{8},{16}7b/5b,
,,,6b/4b,,,,8b/2b,,8b/2b,
