&title=恋ひ恋う縁
&artist=Famishin feat. KOTOKO
&first=0
&lv_6=13+
&des_6=Rhythlame
&inote_6=
(144){4},{8},,,,,,4,
3,2,1,,5,6,7,
8,8,8,8,{16},,3,5,{8}4,4,
8/1,{16}6,4,{8}5,5,1/8,{16}3,5,{32}4/E6,B6,B7,E8,{8}4,
2/8,1-4[8:1],3/5,7/1x-6[8:1],,2/1x-5[8:1],,6/1x<6[8:1],
,3/1x,2,7/1,,8/7,8/7,7/8,
1,3>7[8:1],5/4,6,,6<2[8:1],4/5,3,
,3>7[8:1],5/4,6,,4/3,4/3,4/3,
5/2,8-5[8:1],6/4,2/8x-3[8:1],,7/8x-4[8:1],,3/8x>3[8:1],
,6/8x,7,2/8,,1/2,1/2,2/1,
8,6<2[8:1],4/5,3,,3>7[8:1],5/4,6,
,4-1[8:1]/5-8[8:1],6/3,4/5,{16},,1,8,1,8,{8}1,
{4}7-4[32:3],{8}B3,E2,{4}7-4[32:3],{8}E1,B2,
{4}8-5[32:3],{8}E2,B3,{4}1-6[32:3],{8}B4,E3,
{4}8<3[4:1],{8}B8,B6,B4,2x,8x,6x,
4/3,{16}7,8,{8}7,1/6,E6/B5/A5,E4/B3/A3,E2/B1/A1,E8/B7/A7,
{4}8/2-5[32:3],{8}B6,E8,{4}1/2-5[32:3],{8}E1,B7,
{4}8/1-4[32:3],{8}E8,B6,{4}7/8-3[32:3],{8}B5,E7,
{4}7/1>6[4:1],{8}B1,B3,B5,7x,1x,3x,
5/6,{16}2,1,{8}2,7,5/6,3,4/6>3[8:1],7,
{4}1h[8:1],{8}1,2h[8:1]/8h[8:1],,2v5[32:3]/8v5[32:3],,2-4[16:1]/8-6[16:1],
,2v5q1[4:1]/8v5p1[4:1],,8/2,,,,,{4}4h[8:1]/6h[8:1],
{8}6/4,7h[8:1]/1h[8:1],,8v5[32:3]*v3[32:3],,8<5[32:3]*>3[32:3],
,8pp4[32:7]*qq4[32:7],,8,,,5/3,2,
3h[8:7]/8bh[4:1],,,5b,,6b,,7b<2[16:3],
,8h[8:3],,1h[8:5],,6,5,4,
3h[8:1],2,4h[8:1],1,5h[8:1],8,6h[8:1],7,
8bh[2:1],6,6,6,6,{32}A6,A7,A8,A1,A2,A3,,,,,,,{2}3qq8[2:1],
{4}E5,B6,
{2}8qq5[2:1],{4}E2,E4,
1-4[8:1]*>4[8:1],{8}6,7,{4}1-6[8:1]*<6[8:1],{8}3,2,
{4}4-8[8:1],4qq2[32:5]*pp6[32:5],{2}A4,
{4}8p5[2:1],{8}2,3,{4}4,{8}3,4,
5p3[8:3],6,7,8,{4}1,{8}2>6[4:1],7,
{4}6<2[4:1],2>6[4:1],6<2[4:1],2qq5[4:3],
6x,6x,6x,6x,
{8}6,5,4,3,2,1/6,{4}7-3b[16:1]/8-4b[16:1],
8b/7b,{8}5/3-7-5-2-5[16:7],1/8,3,8,7,6,
4,5/3,1,7,4v1[32:3]/6-1[32:3],3,{4}6/4,
{16}8/7,,,2,{8}5/3,6/4,{32}5bx/7bx,6/4,5/3,2/4,,,,,4bx/2bx,3/5,4/6,7/5,,,,,{8}8/2,
3,5/4qq4[16:3]*pp4[16:3],6,,,,,{4}5/4,
{8}6-4-8-5[16:5],5/3,6,3,2,1,
8,7/4,6/3,5/2,8/7,6/1,5,3,
2/8,{16}4,5,{8}4,6,7/1,{16}5,4,{8}5,3,
8/E3,8/E4,8/E5,8/E6,8/E7,{32}8,7,6,5,4-8[32:3],3,2,1,8,7,6,5,
{4}2/4,{8}5/1-4[32:3],6-3[32:3],1-5[32:3],6-8[16:1],1,6,
1,6/4,8,2,5v8[32:3]/3-8[32:3],6,{4}5/3,
{16}2/1,,,7,{8}6/4,1,{32}2bx/4bx,5/3,6/4,7/5,,,,,7bx/5bx,4/6,3/5,2/4,,,,,{8}1/7,
5,1pp8[16:3]/7qq8[16:3],3,,,,,{4}1xh[8:1]/8<5[8:1],
{8}2,3,{4}5xh[8:1]/4>1[8:1],{8}6,7,
{4}8xh[8:1]/7<4[8:1],{8}1,2,{4}3h[8:1]/4bh[8:1],7h[8:1]/5bh[8:1],
{16}3,5,1,7,4,6,2,8,3,5,1,7,4,6,2,8,
{32}2,3,4,5,6,7,8,1,2,3,4,5,6,7,8,1,2,3,4,5,6,7,8,1,2,3,4,5,6,7,8,1,
{2}2-6[32:3],{4}2w6b[32:3],A2/E2/B2/E3,
{8}5,6,7,8,1<4[16:3],2,1,2,
8-5[16:1],1,2,3,4-1-6[32:5],5,6,7,
{4}8-5>4[32:3],{8}2,3,{4}8-5>4[32:3],{8}2,3,
4>1p4[32:5],6,7,8,2z6[8:1],1,8,7,
6xh[8:1],{16}2,3,{8}4/6xh[8:1],{16}2,3,{8}4/6xh[8:1],{16}2,3,{8}4/6xh[8:1],{16}2,3,
{8}4/6,7/5,6/8,7/1,3/4,5/4,5/6,6/7,
8,{16}2>5[32:3],2,{8}8,2/1,7,{16}6<1[32:3],6,{8}4,6/5,
3,2,1,8,7/6,6/5,5/4,4/3,
3/2,{16}2,4,{8}3p6[8:1],5,{2}C,
{8}E7,E6,E5,E4,E3,6/1,{4}7-3b[16:1]/8-4b[16:1],
8b/7b,{8}3/5-1-7-4-7[16:7],1/8,5,3,2,1,
4,5/3,1v4[32:3],6v1[8:1],1<4[16:3],6,{4}3,
{16}3/6,,,1,{8}2/5,3/7,{32}8bx/4bx,7/3,6/2,5/1,,,,,1bx/5bx,2/6,3/7,4/8,,,,,{8}8/2,
6,4/5qq4[32:3]*-8[32:3],2,{4}5b,{8}7xh[16:1],7xh[16:1],
{16}4/5,,,3,{8}5/2-5-1-3[16:5],7,2,6,7,8,
1-5[32:3],2/6,8-4[32:3],7,8/2>5[32:3],3,8/2,7,
2/8,{16}4,5,{8}4,6,7/1,{16}5,4,{8}5,3,
2/8,4/6,8/2,5/4,7/1,{32}5/4,3,2,1,8,7,6,5,{8}4,
{4}1h[4:3]/7h[8:1],7q3b[32:3],7b,4bw8[32:3],
,5bw1[32:3],{16},,,,1,8,{8}2/7,
{16}5/3,,,2,{8}4-8[32:3]/3-1[32:3],6,{4}3-7[32:3]/4-6[32:3],4/3,
{8}3/4,1,6pp1[16:5]/5p2[16:5],3,{2}6/5,
{4}8xh[8:1]/1>4[8:1],{8}7,6,{4}4xh[8:1]/5<8[8:1],{8}3,2,
{4}1xh[8:1]/2>5[8:1],{8}8,7,{4}5bh[8:1]/6h[8:1],2h[8:1]/4bh[8:1],
{16}6,4,8,2,5,3,7,1,6,4,8,2,5,3,7,1,
{32}7,6,5,4,3,2,1,8,7,6,5,4,3,2,1,8,7,6,5,4,3,2,1,8,7,6,5,4,3,2,1,8,
{8}7/4,5/1-4[32:3],8,3/1x-6[32:3],,7/1x-5[32:3],,2/1x>4[32:3],
,1x/6,7,8,1,2/1,2/1,2/1,
3/5,6>2[8:1],7/8,1,,3<7[8:1],2/1,8,
,6>2[8:1],7/8,1,8,8/7,8/7,8/7,
2/5,4/8-5[32:3],1,6/8x-3[32:3],,2/8x-4[32:3],,7/8x<5[32:3],
,8x/3,2,1,8,7/8,7/8,7/8,
6/4,3<7[8:1],2/1,8,,1s5[32:3]/8z4[32:3],7/2,8/1,
,4,3,2,1,8-4[8:1],7,8/1,
,8/1,4/5,{48}1b/8b,2/7,3/6,4/5,
E
