&title=白線
&artist=葛城リーリヤ (CV. 花岩香奈) feat. ナユタン星人
&first=0.01
&des=Aza
&lv_5=12+
&inote_5=(181)
{1},{8}1,8,1,2x>5[8:1]/8x<5[8:1],,2x/8x,,1x/7x,,6,5,6,4x/7x,4x/7x,,5x/6x,{4}5x/6hx[4:1],5h[4:1],4h[4:1],3,{8}3x/4x,3x/4x,2/5<4[2:1],,{2}4,{8}E2f,E3,E4,C,,B5,B4,,E6,E7,E8,E5,,B3/B6,{4}B2/B7,
3v8[8:1]/7,5,2/6v1[8:1],4,3v8[8:1]/7,5,2/6v1[8:1],4,3v8[8:1]/7,5-7[8:1],4-2[8:1],8-6[8:1],{8}1,1,2,2,,4/5,4/5,,{4}2/6v1[8:1],4,3v8[8:1]/7,5,2/6v1[8:1],4,3v8[8:1]/7,5,2/6v1[8:1],4-2[8:1],5-7[8:1],1-3[8:1],{8}8,8-4[8:1],,3<6[8:1],,7,7b,,
2,1,2,1,2-5[8:1],,7,7,8<5[8:1],,1>4[8:1],1,,5x,,6/4,7,8,7,8,7-4[8:1],,2,2,1>4[8:1],,8<5[8:1],8,,4x,,3/5,{4}3h[4:1]/5,4h[4:1],5h[4:1],6h[4:1],5h[4:1],{8},{16}6x,5x,{8}7xp5[4:1],,,4,4>1[8:1],,5,5<8[8:1],,1-4[8:1],,1,,A7,A6,A5,A4,A3,A2,,
1x/8x,,7-4[8:1],8,7,,3-8[8:1],4,3,,7>5[4:1],8,7,,,2,1-5[8:1]/8,,7,7,,4/6,3,2,{4}5-8[8:1],4-1[8:1],5-8[8:1],4,{8}2-5[8:1],1,2,,6-1[8:1],5,6,,3h[4:1],,,{16}4x,2x,{4}4xq5[4:1],{8},3,3h[4:1],,,{4}1x<6[8:1],2x>5[8:1],{8}1x<8V25-7b[8:5],
{1},{4}3>8[4:1],3x,7<4[4:1],7x,2<7[4:1],2x,6>3[4:1],6x,1<6[4:1],1x,5>2[4:1],5x,8<5[4:1],8x,4>1[4:1],4x,8x,B5/B6,B2/B3,4w8[2:1],,,,2x/6x,1x,B3/B4,B6/B7,5w1[2:1],,,,3x/7x,6x,B4/B5,B1/B8,3w7[2:1],,,,1x/5x,3x,B1/B8,B4/B5,6w2[2:1],,,,{8}4x/8x,8,{16}8x,,,7x,,,6x,,4x,,,3x,,,{4}2x,{8}1bx/8bx,1bx/8bx,1bx/8bx,2b/7b,,{4},
{32}5hx[8:1],E4,B3,B2,{8}E2,{32}4hx[8:1],E6,B6,B7,{8}E8,{32}5hx[8:1],E4,B3,B2,{8}E2,{32}4hx[8:1],E6,B6,B7,{8}E8,{32}5hx[8:1],E4,B3,B2,{8}E2,{32}4hx[8:1],E6,B6,B7,{8}E8,{32}5hx[8:1],E4,B3,B2,{8}E2,{32}4hx[8:1],E6,B6,B7,{8}E8,{4}3h[4:1],4h[4:1],{8}5,5,6<3[2:1],6,,,,,,5hx[8:1],,4,3,3,6,6,2,2,7,7,1,2v5[8:1]/8v5[8:1],{4},,4,3qq5<4[1:1]/5,,,,,,{8}7,6,5hx[8:1],,
{32}4hx[8:1],E6,B6,B7,{8}E8,{32}5hx[8:1],E4,B3,B2,{8}E2,{32}4hx[8:1],E6,B6,B7,{8}E8,{32}5hx[8:1],E4,B3,B2,{8}E2,{32}4hx[8:1],E6,B6,B7,{8}E8,{32}5hx[8:1],E4,B3,B2,{8}E2,{32}4hx[8:1],E6,B6,B7,{8}E8,{32}5hx[8:1],E4,B3,B2,{8}E2,{4}6b,1b/7b,2b<3[2:1]/8b,2b/8b,,,{16}7,,,6,,,5,,3h[16:3]/4,,,4h[16:3],,,5x,,6h[16:3],,,7h[16:3],,,8x,,1/2,,,3/8,,,1-6[8:1]/2-5[8:1],,{2}1/2,{4}4,4bw8[1:1],{1},{4},,
{1}1/8<1[2:1],8<1[2:1],8<1[2:1],8<1[2:1],{2}7h[2:1],{4}6,5,4h[2:1],,5,3/6,{4}2/7p5[2:1],,,4x>5b[4:3],{1},{4}B1,B2,B3,B4,B5,B6,B7,B8,E1,E2,E3,E4,E5,E6,E7,E8,1/2,1/2,3/4,3/4,5/6,5/6,7/8,7/8,1/8,2/3,4/5,6/7,{1}1b>8[2:1]/8b<1[2:1],
{32}8hx[8:1],E2,B2,B3,{8}E4,{32}1hx[8:1],E8,B7,B6,{8}E6,{32}8hx[8:1],E2,B2,B3,{8}E4,{32}1hx[8:1],E8,B7,B6,{8}E6,{32}8hx[8:1],E2,B2,B3,{8}E4,{32}1hx[8:1],E8,B7,B6,{8}E6,{32}8hx[8:1],E2,B2,B3,{8}E4,{32}1hx[8:1],E8,B7,B6,{8}E6,{4}2h[4:1],1h[4:1],8h[4:1],{8}7-5>4-2[2:1],7,,,,,,1hx[8:1],,8,7,7,2,2,6,6,3,3,5-7[8:1],5-3[8:1],{4},,8z4[4:1],4>5[2:1],,,{8},4x,3x,2x,1x,8x,7x,6x,5hx[8:1]/4hx[8:1],,
{32}1hx[8:1],E8,B7,B6,{8}E6,{32}8hx[8:1],E2,B2,B3,{8}E4,{32}1hx[8:1],E8,B7,B6,{8}E6,{32}8hx[8:1],E2,B2,B3,{8}E4,{32}1hbx[8:1],E8,B7,B6,{8}E6,{32}8hbx[8:1],E2,B2,B3,{8}E4,{32}1hbx[8:1],E8,B7,B6,{8}E6,{32}8hbx[8:1],E2,B2,B3,{8}E4,{4}7b<4[8:1],7/8b>3[8:1],7b<4[8:1]/8,7/8b>6[8:3],{2},{16}7x,,,8x,,,1x,,2h[16:3],,,3h[16:3],,,4x,,7h[16:3],,,6h[16:3],,,5x,,3h[16:3],,,4h[16:3],,,5x,,{2}6>3[8:1],{4}2/7,1hx[4:1]/8hx[4:1],,{8}4b-1[4:1]/5b-8[4:1],4b/5b,{2},{16}7,,,6,,,5,,{1}4b>5[2:1],4b>5[2:1],{8}4,4,3/5,3/5,2/6,2/6,1/7,1/7,{1}8bp5[2:1],
{8}4x,3x,4x,2/5,,2/5,,1/8,,6x,7x/5x,,4/8-4[8:1],4/8,,3,3,,6,6,,4/5,3/6,2/7-3[8:1],,,,2-6[8:1]/7,,,,1x/8x,7x,8x,7x,1/6,,1/6,,2x,1x,2x,3/8,3-6[8:1]/8,,,,7x,E1/E7,E2/E6,E3/E5,E2/E8,E3/E7,E4/E6,E1/E3,E8/E4,E5/E7,Ch[4:1],,,E5,C,E1,,,,,1b/8b<1[2:6],
