&title=花結び
&artist=栗山夕璃
&first=0
&des=crystal
&lv_2=4
&lv_3=7+
&lv_4=10+
&lv_5=13+
&inote_2=(180){32},,,{1},{2}1,,2,,3,,4h[1:1],,5,,6,,7,,8h[1:2],,1h[1:1],,,,7x/8x,1x/2x,{4}2x,1x,8x,7x,{2}8x,1/8,1,1/8,7,6,5,4,3h[1:1],,,,Ch[1:1],,,,5/6,,3/4,,6/4,,3/5,,4-8[4:5],,,,1,1,1,,E3,,B3,,B6,,E7,,8,1,8,1,1b/8b,,,,
{2}6,6,5,5,4,4,3,3,2h[2:1],,7h[2:1],,1h[1:1]/8,,,,2,2,1,1,8,8,7,7,6h[2:1],,3h[2:1],,5,,4,,4h[1:1]/5h[1:1],,,,4bh[1:1]/5bh[1:1],,,,7V51[4:7],,,,,,8x,,2V48[4:7],,,,,,1x,,
6h[1:1],,5,,3h[1:1],,4,,7/8h[1:1],,,,2/1h[1:1],,,,2,3,3,4,5,6,6,7,8h[1:1],,,,1s5[4:5],,,,4x,,4x,,4x,,4x,,7,8,2,1,{4}1/8,1/8,1/8,,1b/8b,,,,
2,,1,,8,,7,,8,,1,,2h[2:1],,,,3,3,3,,6,6,6,,4/5h[1:1],,,,,,,,6,,5,,4,,3,,4,,5,,6h[2:1],,,,7,,7,,2,,2,,3,,,,6x,,,,5,5,5,,4,4,4,,5x,,,,B8/B1,,,,C,,,,,,,,
{2}5,,6,,7,,8h[1:2],,1h[1:1],,,,7x/8x,{8}1x/2x,,,1bx/8bx,E
&inote_3=(180){32},,,{1},{4}5xh[1:2]/4xh[1:2],,,,,,,,,,,,,,,,6,7,8,,3,2,1,,2,3,4/5,6,7,,8h[2:1],,1,,1h[2:1],,8,,2/7,,2/7,,2/7,,3x,3x,6x,6x,B4,B3,B2,B1,B8,B7,B6,B5,Ch[1:1],,,,,,7,,7^2[4:3],,,,,,3,,3^6[4:3],,,,,,,,1/7,,,,2/6,,,,8/2,,,,7/3,,,,6h[2:3]/5h[2:1],,,,3h[2:3],,,,4h[1:1],,,,5,,4/5,4/5,3/6,,3/4,,3/6,,5/6,,3/6,,2/7,,1/2,,7/8,,6,6,6,,5,5,5,,4,3,2,1,7b/8b,,,,
5,5,4/6,4/6,5,5,4,,4,4,5/3,5/3,4,4,5,,2h[2:1]/7h[2:1],,,,1h[2:1]/8h[2:1],,,,1-4[4:3],,,,5x,,1/8,,8,8,1/7,1/7,8,8,1,,1,1,2/8,2/8,1,1,8,,6h[2:1]/5,,4,,3h[2:1]/4,,5,,7,6,5,5,4,4,3,2,1xh[2:3],,,,8xh[1:1],,,,1,,1/8,,2/7,,2/7,,2b>7[4:5],,,,,,,,7<2[4:5],,,,,,,,1>8[4:5],,,,,,,,7-2b[4:1],,,,3,3,4,4,
5h[1:2],,4,,3,,2,,4h[1:2],,5,,6,,7,,8h[2:3],,,,1h[1:1],,,,,,,,2/7,2/7,2/7,,{8}1x,1x,1x,,1h[1:1],,,,8x,8x,8x,,{4}8,,2,3,4,5,6,7,1/8,,7,6,5,4,3,2,1/8,,2h[1:1],,,,7h[1:1],,,,C,,,,E2,,,,E8,,,,E4/E6,,,,5,4,5,4,5,4,5,4,6x,,3x/6x,,3b/6b,,,,
1/2,1,1,1/2,2,2,1/2,,8/7,8,8,8/7,7,7,8/7,,6h[4:1],,5h[4:1],,4h[4:1],,3h[4:1],,2q5[4:5],,,,,,,,6/5,6,6,6/4,4,4,4/5,,3/4,3,3,3/5,5,5,5/4,,1/7,,8h[4:1],,8/2,,1h[4:1],,6/4,,,5xh[8:1],,4,4,4,3h[2:1],,5,,6h[2:1],,4,,Ch[1:2],,,,,,,,,,,,,,,,
6,7,8,,3,2,1,,2,3,4/5,6,7,,8h[2:1],,1,,1h[2:1],,8,,2/7,,2/7,
,{8}3/6,,3x/6x,3bx/6bx,E
&inote_4=(180){32},,,{8},,,,,,,,{1}3bx>4[4:11]/4bx<3[4:11],,,{8},,,,,,6,,4,,3h[8:1]/5h[8:1],,3/5,,4h[8:1]/6h[8:1],,4/6,,7,,7,,7,,8^3[4:1],,,,,,,,2^7-3[2:1]/7,,,,,,,,5h[1:1],,,,6,,6,,4h[2:1],,,,3,,,,3/4pp7[2:3],,,,,,,,3x,,2x,,1x,,8bx,,
1,,3/7,,8,,2/6,,5,,3/7,,4,,2/6,,7h[4:1],,,,6/8,,1/3,,2h[4:1],,,,1h[4:1]/3h[1:2],,,,7,,7,,7,,,,6,,6,,6,,,,6h[4:1]/5h[4:1],,,,4/7,,2/5,2/5,,1,1,,2,,3,,E6,E7,E8,,,,,,Ch[2:1],,,,,,,,E4,E3,E2,,,,,,Ch[2:1],,,,,,,,6/5,,6,,6/4,,6,,6/3,,6,,6/2,,6,,6/1h[2:1],,,,,,,,2h[4:1],,,3x,,,4x,,E7,E8,E1,,,,,,1xh[2:1],,,,,,,,E3,E2,E1,,,,,,8xh[2:1],,,,,,,,7/4,,7/4,,7/4,,7/4,,3/6,,3/6,,3/6,,3/6,,2x/5x,2x/5x,2x/5x,2x/5x,2x/5x,,2x/5x,,1bh[2:1]/4bh[2:1],,,,,,,,
2,,1/8,,7,,1/8,,2,2,3,,7,7,6,,5,,4,,3/6,3/6,3/6,,3h[4:1]/7h[4:1],,,,2/6,,3/7,,8^6[4:1],,,,1^3[4:1],,,,5h[2:1],,,,4h[4:1],,,,5h[4:1]/6h[4:1],,,4/7,,7x/8x,7x/8x,,1b/2b,,4,,1/2,,7,,7/8,,5/6,,1/2,,3/4,,2/5,,2/6,,2/7,,2/8,,1h[2:1],,,8x,8h[2:1],,,7x,7,,6,,4/5,,3/4,,2/3,,,B1/B8,,,6/7,,6/7,,6/7,,B1/B8,,,,4h[4:3]/5,,6,,5,,6,,5h[2:1]/4,,3,,4h[2:1],,,,7,,,6h[8:3]/8h[8:3],,,,,2,,2,,3h[2:1]/1h[2:1],,,,,,,,2-5-8-3b[4:3],,,,,,,,,,,,6,6,,7,,7,,8,,8,,1,,2,2,,3v2[2:1]/6,,,,,,,,7v6[2:1]/2,,,,,,,,3,3,,2,,2,,1,,1,,8,,7,7,,6xqq5[4:5]/2xqq1[4:5],,,,,,,,,,,,,,,,
5/6,,,,5/6,,,,3/4,,,,3/4,,,,{16}3h[16:3],,,2h[16:3],,,1h[8:3],,,,,,,,,,8h[16:3],,,7h[16:3],,,6h[8:3],,,,,,,,,,{8}4x/5x,,6,6,,,6,,4x/5x,,3,3,,,3,,2-6[4:3],,,,,,,,7-3[4:3],,,,,,,,{6}1,2x,2x,8,7x,7x,{8}5h[1:1]/4,,4,,4,,4,,4>5[4:3],,,,,,,,C,,,,6h[1:1],,,,1h[2:3],,,,,,,,8h[2:3],,,,,,,,2h[2:1],,,,,,,,E8/E2/3xv6[4:3],,,,,,,,7,7,7,,,,,8,8h[2:1],,,,,,,,1,1,1,,,,,2,2h[2:1],,,,,,,,2/4,2/4,2/4,,3/5,3/5,3/5,,4/6,4/6,4/6,,5/7,5/7,5/7,,1x/8x,1x/8x,1x/8x,1x/8x,1x/8x,1x/8x,1x/8x,1x/8x,1bxh[2:1]/8bxh[2:1],,,,,,,,
7/4^1[2:1],,7,,7,,7,,5^8[2:1]/2,,2,,2,,2,,3,3,3/4,,6,6,5/6,,4,,7/8,,5,,1/2,,7x,7xh[8:1],B2/B3/E3,,2x,2xh[8:1],B7/B6/E7,,8x,8xh[8:1],B2/B3/E3,,1x,1xh[8:1],B7/B6/E7,,4h[4:1]/3h[4:1],,,5/2,,2x/1x,2x/1x,,8b/7b,,5/6,,3/4,,1/2,,6h[4:1],,5h[4:1],,4h[4:1],,3h[4:1],,6h[4:1],,5h[4:1],,4h[4:1],,3h[4:1],,2,,,1/8,1/8,,,7,7,,6,,4,,3,,1/2,,,E6/B6,,,7/8,,7/8,,7/8,,B3/E4,,,,1h[4:1]/7h[4:1],,,,2/8,,1x/7x,2x/8x,,,3/4,,3/5,,3/4,,7h[8:3]/6h[8:3],,,,,,2/3,,2h[2:1]/3h[2:1],,,,,,,,7/1V35[2:1],,,,,,,,2/8w4[2:1],,,,,,,,{1}2b/6b,{8},,,,,,
6,,4,,3h[8:1]/5h[8:1],,3/5,,4h[8:1]/6h[8:1],,4/6,,7,,7,,7,,8^3[4:1],,,,,,,,2^7-3[2:1]/7,,,,,,,,5h[1:1],,,,6,,6,,4h[2:1],,,,3,,,,3/4pp7[8:5],,,,2x,,1x,8bx,E
&inote_5=(180){32},,,{1},{64}8b,E8/E1`B8`B1`B7,B6/C/B2,B5/B3`E6`E3`B4,{16}5xh[16:15]/3xh[16:47],{8},,,,,,,,,,,,,,,5x<3[4:5],,,,,,,,,,,,,,
5h[8:57]/1,,8-6[8:1],,,,2-4[8:1],,,,1-6[8:1],,1-4[8:1],,A1,,,,3^8pp3[4:3],,,,,,,,,,,A3,E3,B2,B1,E1,8-6v4-2[4:3],,,,,,,,,,,Ch[8:3],,,,,E6,,E5,,1v1[8:1],,,,,{16}2h[4:1]/8h[4:1],,,,,,1bx,2x/8x,7x/3x,6x/4x,5bx,,,,
7,8,7,8,6,,6,,1,2,1,2,3,,3,,5-8[8:1],,,,5/4,,3-8[8:1],,,,3/6h[4:1],,,,1,,2,,3,,4,,5,,3/6,,7/4w8[8:1],,5/8,,4x,,,,1,,1,,5/4h[4:1],,5,,5,,3/6,,,,5h[1:1],,,4,4>5[4:3],,,,,,,,,,,,,,,,,,7,,6,,5,,4,,3,,4h[8:7]/5,,,,5<4[4:3],,,,,,,,,,,,,,(144){10}5x-1[4:1],(180){16}5xw1b[4:1],,,,5,,,,,,,,
5pp3[2:1],,D6,,A6,,,,,,,,,,B1,,2^4-8[2:1],,,,,,,,,,,,,,,,4h[1:1]/5,,5,,5h[4:5],,,,,,,,,,,,,,,,,,,,B5,,,,6/8,,6/8,,7,,,,2/5,,3/6,,4,,5/7,,6/4,,5,,2v8[8:1]/4-8[8:1],,,,,,,,7h[4:1]/5,,,,5,,,,1s5[8:1],,,,7-3[8:1],,,,,,,,4z8[8:1],,,,6pp2b[2:1],,,,,,,,,,,,,,,,Ch[2:1],,B6,,6V84[4:1],,,,,,B2,,A2,,,,Ch[2:1],,B3,,3V15[4:1],,,,,,B7,,A7,,,,1h[2:1]/8,,8,,6,,6,,7h[4:1],,,,4,,,,2/3,,2,,1/2,,1,,1/8,,8,,7/8,,7,,6x-2[4:1],,6,,6,,6,,3x-7[4:1],,3,,3,,3,,5x-1[4:1],,5,,5,,5,,4x-8[4:1],,4,,4,,4,,6b,7,8,1,2b,3,4,5,6b/3b,2,1,8,7b,6,5,4,{4}3bxh[2:1]/5bxh[2:1],,,
7-4[8:1],7b/8b-5[8:1],8/1-4[8:1],2-6[8:1],2/7^4[8:1],7/8v3[8:1],8/1v6[8:1],1/2^5[8:1],2/7,{8}8/4,1,2/6,3,4/8,5,2/6,7,8>4[4:1],,4<8[4:1],,8,8,4,4,2-6[8:1],1,2/8w4[8:1],1,8,,5xV31V75[4:1]/6xV42V86[4:1],,5/6,,,,4-1[8:1]/3,,5,,{32}8x,7x,{16}6x,,,1/8,,{32}2x,3x,{16}4x,,,5/2,,{32}1x,8x,{16}7x<1[16:11],,,1b,,,,8b,,,,7b,,,,6bs2[4:3],,,,4,,4,,5,,5,,4,,,,3z7[4:3],,,,4,,5,,6h[4:1],,,,,,,,1x^8-6^5^6-8^1[2:1],,,,4xq2b[4:1],,,,,,,,D2f,,,,,,,,8h[4:3],,,,1p7[4:1],,2,,1,,,,,,,,6h[4:1],,,,7,,3h[4:1],,,,2,,6,,,,{32}5x,6x,{16}7x,,,{32}E2,E3,{16}E4,,,{32}E6,E7,{16}E8,,,{32}1x,2x,{16}3x,,,4>6[4:3],,,,5,,5,,5,,5,,5,,,,5-1[8:1],,,,5qq1[4:1]*pp1[4:1],,,,5,,,,,,,,4/3,,7,,,,5/6,,2,,,,7p2[4:1]*<3[4:1],,,,7,,,,,,,,1/2,,1/8,,7/8,,2h[8:13]`7b-2-6-3-7[8:11],,{4},,,,,,,,
{8}3h[4:1]/4,4,B5,4h[4:1]/5,5,B6,5h[4:1]/6,6,E7,4h[4:1]/5,5,B6,3h[4:1]/4,4,B5,,6V82[4:3],,4,4,3,3,3,3,3V17[2:1],,3/5h[2:1],,,,,,2/1,1,B1,1/8,8,B8,8/7,7,B7,1/8,8,B8,2/1,1,B1,,2h[4:3]/1,,1h[2:1],,,,,,7^5[2:1],,,,,,,,
3/4,3/4,3/4,3/4,2/5,2/5,2/5,2/5,1/6,1/6,1/6,1/6,7/8,7/8,7/8,7/8,2q5[2:1],,,,,,,,2q5[2:1]/3q5[2:1],,,,,,,,{16}6h[4:3]/B4,B3,B2,E2,1xpp4[4:1],,,,,,,,,,,,3h[4:3]/B5,B6,B7,E8,{4}8xqq5[4:1],,,1v3[8:1]*v7[8:1],1-5[8:1],1^3[8:1]*^7[8:1],1w5b[4:1],,,{16}7h[8:1]/3h[8:1],,,,3/7,,,,{6}4h[2:1]/B2,B3,E4,A5/B5,E7,A6,{8}8h[2:1]/B5,B6,B7,E8,B1/A1,B3,B2,E2,{4}2qq7[2:1]*qq7[2:1],B1,E1,B8,1h[4:1]/8h[4:1],,{8}1-3[8:1],1-7[8:1],1-5[8:1],,,,8-6[8:1],8-2[8:1],8-4[8:1],,,,1-4[2:1],,,,,,,,7-2[4:1]/6-3[4:1],,6/7,,,,3^6[8:1],,3^8[8:1],,3-7[8:1],,,,3x^6[4:1]/6x^3[4:1],{64}E8/E2,B2,B3,,,,,,{1}3bx/6bx,Ch[4:1],Ch[4:1]/4q5[4:5],Ch[4:1],{16}6-1[8:1]/5,6/5-2[8:1],,,,,,,5-8[8:1]/4,5/4-1[8:1],,,,,,,3-8[8:1]/4,3/4-7[8:1],,,,,,,4-1[8:1]/5,4/5-8[8:1],,,,,,,1bx,2/8,3/7,4/6,5b,6/4,7/3,8/2,1b,2/8,3/7,4/6,5b,6/4,7/3,8/2,{4}1bxh[2:1],,,
{4}6-2[8:1],6b/5b-1[8:1],5/4-8[8:1],4/3-7[8:1],3/2-6[8:1],2/1-5[8:1],1/8-4[8:1],8/7-3[8:1],7/6-2[8:1],{16}6x/5x,E5,E4,E3,E2/E6,E7,E8,E1,{4}1x-3[8:1]*-4[8:1],1-7[8:1]*-6[8:1],1w5[8:1]*-5[8:1],,{8}7h[8:1]/3h[8:1],,2h[8:1]/6h[8:1],,7-3[8:1],A8,7/1w5[8:1],E8/E1,B1/B5`C,,3xV17V53[4:1]/4xV28V64[4:1],,,,,,4h[4:1]/5-8[8:1],,,,{32}6x/2x,7x/3x,{16}8x/4x,,,4/8,,{32}7x/3x,6x/2x,{16}5x/1x,,,1/5,,{32}6x/2x,7x/3x,{16}8x>5[16:11]/4x,,,6b,,,,7b,,,,8b,,,,1b<6[4:1],,,,6>3[4:1],,,,3>8[4:1],,,,8<5[4:1],,,,5>2[4:1],,,,2<7[4:1],,,,7v2[4:1],,,,,,,,5x^6-8^1^8-6^5[2:1],,,,2xp4b[4:1],,,,,,,,D5f,,,,,,,,5/4,,,,4^1[4:1]/5^8[4:1],,3/6,,4/5,,,,E1f,,,,7h[4:1]/6h[4:1],,,,,,2h[4:1]/3h[4:1],,,,,,6/7,,,,{32}6x/4x,7x/3x,{16}8x/2x,,,{32}E1,E8,{16}E7,,,{32}E5,E4,{16}E3,,,{32}2x/8x,3x/7x,{16}4x/6x,,,{1}5p1[2:1]*-1[2:1],5q1[2:1],{8}1/7,6/8,,2/8,1/3,,1x-3[8:1],8x-6[8:1],1x-5[8:1],8x-4[8:1],1x-3[8:1],8x-6[8:1],1x-5[8:1],8x-4[8:1],1x>8[2:3],,1bx,,,,,,,,,,,,1^3[8:1]*^6[8:1],,1s5[2:3],,1b/8b,,,,,,,,,,,,,,
5h[1:7]/1,,8-6[8:1],,,,2-4[8:1],,,,1-6[8:1],,1-4[8:1],,A1,,,,3^8pp3[4:3],,,,,,,,,,,A3,E3,B2,B1,E1,8-6v4-2[4:3],,,,,,,,,,,Ch[8:3],,,,,E6,,E5,,1x-5b[8:1],,,E
