&title=クリエイトがある
&artist=いよわ
&first=0.03
&des=绝望的胃弱痴66
&des_5=
&lv_5=14
&inote_5=(190){4},{2},,,{4}8b,
{8}3h[16:1],3h[16:1],5h[16:1],5h[16:1],4h[16:1],4h[16:1],{4}4h[8:1]/5h[8:1],
{8}3,3h[16:3],4,2,6,6h[16:3],5,7,
3,3h[16:3],4,2,6,6h[16:3],5,7,
3,3h[16:3],4,2,7,7h[16:3],8,6,
3h[16:1],5h[16:1],4h[16:1],6h[16:1],3h[16:1],5h[16:1],{4}4h[8:1]/5h[8:1],
{8}6,6h[16:3],5,7,3,3h[16:3],4,2,
6,6h[16:3],5,7,3,3h[16:3],4,2,
6,6h[16:3],5,7,2,2h[16:3],1,3,
6h[16:1],5h[16:1],4h[16:1],3h[16:1],5h[16:1],4h[16:1],{4}6h[8:1]/3h[8:1],
{8}2,2h[16:3],1,3,7,7h[16:3],8,6,
2,2h[16:3],1,3,7,7h[16:3],8,6,
2,2h[16:3],1,3,6,6h[16:3],5,7,
2h[16:1],4h[16:1],5h[16:1],7h[16:1],3h[16:1],6h[16:1],{4}4h[8:1]/5h[8:1],
{8}7,7h[16:3],8,6,2,2h[16:3],1,3,
7,7h[16:3],8,6,2,2h[8:1],{16}5,6,7,8,
3,4,5,6,7,8,{8}1/5,{4}5/1h[4:1],7h,
{8}2/6,3,4,5,3/6-3[8:1],6/3-5[8:1],,,,3,
3-8[6:1],4,,7,7,6,
5/1-5[8:1],1/5-3[8:1],,7,7,8<4[16:3],,3,
3,2,{4}1>5[16:3],{8}6,6,7,8h[4:1],
5,5-1[6:1],,8,{4}8<5[6:1],{8}1,2,
3,4/5,,7-4[8:1],4<1[4:1],7,2,2,
3,3>8[6:1],,7,7,6,{4}6>3[6:1],
8,{8}1>4[8:1],4-8[8:1],{4}1,7h[4:1],
{8}8b,1,2,3,4/7-4[8:1],7/4-8[8:1],,3,
2,2,6/1-6[8:1],1/6-2[8:1],,5,4V68[4:1],4,
1,3,,2,2,3/1<5[16:3],,4,
3,2,{4}1>5[16:3],{8}6,7,8,1h[4:1],
2,2-6[6:1],,5,{4}5<8[6:1],{8}4,3,
2,8/1,,2v5[8:1],5V31[4:1],2,7,7,
6,6pp4[8:3],1,1,2,2,3,3,
4/2h,2/4h,5/3h,3/5h,6/4h,4/6h,7/5h,5/7h,
{24}8b-4[8:1],1,2,3,4,5,{4}6,{8}2-5[8:1],5V38[4:1],2,8,
6,6V48[4:1],,6/8V64[4:1]*V24[4:1],{2},{8}2/5,
1,8,6,2/4,3,7,5,
3-5[8:1],2,6V47[4:1],7,2,1>8[16:5],,8b,
{2},{8}7-4[8:1],4V61[4:1],7,1,
3,3V51[4:1],,3/1V35[4:1]*V75[16:3],{2},{16}6,
5,6,5,7,4,7,4,8,3,8,3,{8}1-6[8:1],1,
{4}4b-8[8:1],7b<2[16:3],1bw5[8:1],1b,
3b-8[8:1]/7b-4[8:1],3/7,{8}2-5[8:1],5V38[4:1],2,8,
6,6V48[4:1],,6/8V61[4:1]*V62[4:1],{2},{8}3/8,
4,7,5,1/6,2,7,5,
3<5[8:1],2,7V15[4:1],8,3,2V48[16:3],,7bV51[32:7]*V53[16:3],
{2},{8}7-4[8:1],4V61[4:1],7,1,
3,3V51[4:1],,3/1V38[4:1]*V36[4:1],{2},{16}7,
1,7,1,6,2,6,2,5,3,5,3,{8}4z8[8:5],4V62[8:3],
{4},,,1b,
{8}3,4,{4}1h[4:1],{8}4,3,1,1,
3-6[8:1],4,{4}5,{8}7v4[8:1],8,{4}1,
{8}3,4,{4}1h[4:1],{8}4,3,1,1,
3-8[8:1],4,{4}5,{8}7-4[8:1],6,{4}5,
{8}3,5,{4}1h[4:1],{8}7,3,1,1,
3-7[8:1],7,{4}8,{8}1-5[8:1],3,{4}4,
{8}3,5,{4}1h[4:1],{8}7,3,1,1,
3>8[8:1],4,{4}5,{8}6qq4[16:3],7,{4}8,
{8}2,2,{4}8h[4:1],{8}2,6,4,4,
7v4[8:1],4<7[8:1],{4}7,{8}3v8[8:1],8>3[8:1],{4}3,
{8}6,6,{4}4h[4:1],{8}7,3,5,5,
2-5[8:1],5-1[8:1],{4}2,{8}7-2[8:1],2-6[8:1],{4}7,
{8}3,3,{4}5h[4:1],{8}1,7,4,4,
1-5[8:1],5-8[8:1],{4}1,{8}1-5[8:1],5-2[8:1],{4}1,
{8}7,7,{16}1,2,3,4,6,7,8,1,5,4,3,2,
{8}1/5h,5/1h,2/6h,6/2h,3/7h,7/3h,8/4h,4/8h,
{16}2b,6,2b,6,3b,5,3b,5,4b,6,4b,6,{8}5bV74[4:1],7b,
4b>5[8:3],3,,5p5[4:1],,,,,,1,
{16}6,5,{8}6,2,5,{16}3,4,{8}3,
{16}6-4[8:1],5,{8}6,2-5[8:1],1,6,7-3[8:1],2,1b<3[16:5],
{2},{8}8-3[8:1],3>5[4:1],8,5,
4,4V25[4:1],,4/5<3[4:1]*q3[4:1],{2},{16}5,
3,5,3,4,2,4,2,5,1,5,1,{8}6-4[12:1],6,
{4}2b-8[12:1],5bV73[16:3],4bw8[8:1],4b,
1b>4[8:1]/7b<4[8:1],1/7,{8}1-6[8:1],6<4[4:1],1,4,
5,5V74[4:1],,5/4>6[4:1]*p5[4:1],{2},{8}4,
5,{16}3,4,{8}2,8,1,{16}6,5,{8}7,
{16}3<6[8:1],4,{8}2,7p3[8:1],8,3,2-6[8:1],8,7b>6[4:1],
{2},{8}1-5[8:1],5<3[4:1],1,7,
{16}4b,{8},{16}6b,{8},8b/5bw1[8:1],{2},{16}8,
2,8,2,7,3,7,3,6,4,6,4,{8}5z1[8:5],5V37[16:7],
{1},{4}4h[8:1]/5h[8:1],
{8}3,6,3/5,3,4/6,6,
{4}3h[8:1]/5h[8:1],{8}4,6,3/5,3,4/6,6,
{4}4h[8:1]/5h[8:1],{8}3,5,2/4,3,4/6,5,
{4}4h[8:1]/6h[8:1],{8}3/5,3,4/6,6,3/5,5/3,
{4}5h[8:1]/4h[8:1],{8}6,3,6/4,5,5/3,4,
{4}6h[8:1]/4h[8:1],{8}5,3,7/4,6,5/2,3,
{4}5h[8:1]/4h[8:1],{8}6,4,7/3,6,5/1,2,
{4}5h[8:1]/3h[8:1],{16}2,4,{8}3h[8:1],{16}7,5,{8}6h[8:1],{16}1,5,{8}3,
{4}6h[8:1]/4h[8:1],{8}3/5,3,3/4,3,6/3,3,
{4}4h[8:1]/7h[8:1],{8}6/4,6,6/5,6,2/6,6,
{4}2h[8:1]/5h[8:1],{8}3/4,3,3/6,3,8/3,3,
{4}1h[8:1]/7h[8:1],{8}6/5,6,6/8,6,2/6,6,
{4}8h[8:1]/3h[8:1],{8}3/5,3,3/4,3,1/3,3,
{4}4h[8:1]/7h[8:1],{8}6/4,6,6/5,6,8/6,6,
{4}2h[8:1]/5h[8:1],{8}3/4,3,3/1,3,7/3,3,
{4}4h[8:1]/6h[8:1],{16}7,5,{8}6h[8:1],{16}2,4,{8}3h[8:1],{16}8,1,{8}7,
6/3,6/3,1,6V47[4:1],4,6,2,2,
8-4[8:1],8,1-3[8:1],1,5-7[8:1],5,4-2[8:1],4,
8,8,1,6V47[4:1],4,6,2,2,
8-5[8:1],8,1-4[8:1],1,7-4[8:1],7,2-5[8:1],2,
6,6,3-5[8:1],8-6[8:1],3,8,2,2,
6-4[8:1],1-3[8:1],6-8[8:1],1-5[8:1],6,1,8,8,
3,3,6-4[8:1],1-3[8:1],6,1,7,7,
3-5[8:1],8-6[8:1],3-1[8:1],8-4[8:1],3,8,{4}1b,
{24}1,2,3,5,6,7,1,2,3,5,6,7,{32}8/1,2,3,4,5,6,7,8,{4}1b/5b,
E
