&title=fulgente
&artist=Junk
&first=0
&lv_5=13+
&des=Bouquet4 vs. R4BBY7EX
&inote_5=
(133){4},,,,{16}5,
{8},{16}4,{8},3h[2:1],{16},E4,{8},E5,E6,
{2}4qq1[2:1],{16}E8,{8},{16}E7,{8},E6,
{16}4,{8},{16}5,{8},6h[2:1],{16},E6,{8},E5,E4,
{2}5pp8[2:1],{16}E2,{8},{16}E3,{8},E4,
{16}6/4h[8:7],{8},{16}5,{8},3,{16},2,{8},1,8,
{16}5/7h[4:3],{8},{16}6,{8},8,{16},1,{8},2,3,
{16}4/6,{8},{16}3/5,{8},4/2h[2:1],{16},3,{8},1,8,
7/3,{16}6,5,,3,{8}4,{16},2,{8},{4}1b/8bw4b[8:1],
{1}Cf/8pp6[2:1],
{16}6h[16:3],{8},{16}B5,{4},{16}6h[16:1],{8},{16}B5/E6,{4},6<3[2:1],
D6,D5,D4,
{16}3h[16:3],{8},{16}B4,{4},{16}3h[16:1],{8},{16}E4/B4,{4},3<6[2:1],
E2,E1,E8,
{16}7h[4:1],{8},{16}B5,{4},{16}7,5h[16:3],,B5/E6,{4},{1}8qq5[2:1]*pp3[2:1],
{16}2h[4:1],{8},{16}E4,{4},{16}2,4h[16:3],,E4/B4,{4},{2}5h[2:1]/3-7[8:1]*-7[8:1],
{16}E2,E3,E4,E5,E6,E7,E8,E1,
7-5[8:1],{8},{16}4,{4},{16}8-4[8:1],8,,4,{4},4/1-3<4-8[8:3],
E6,E7,A7,
{16}2-4[8:1],{8},{16}5,{4},{16}1-5[8:1],1,,5,{4},5/8-6>5-1[8:3],
E4,E3,A2,
{16}7-5[8:1],{8},{16}4,{4},{16}8-4[8:1],8,,4,{4},8/3-1<8-4[8:3],
7,6,5,
{16}4/3-1[8:1],{8},{16}8,{4},{16}1/8-4[8:1],8,,4,{4}8,
{2}5w1[8:1],{16}E8,E7,E6,E5,E4,E3,E2,E1,
3qq4[4:1],{8},{16}4,{8},5,,{16}6,5,4,3,2,1,
4/8qq1[8:3],{8},{16}1,{8},2h[8:3],,,,{16}7,8,
{8}7,{16}1,8,{8}2,{16}7,5,{8}7,{16}4,5,{8}4,6,
{4}7-3[8:1]/2-8[8:1],7/2,{2}5w1[8:1],
{32}2/8,3,{16}4,6,5,{8}7,{16}2,1,2,8,3,4,{8}3,5,
{32}1/7,6,{16}5,3,4,{8}2,{16}7,8,7,1,6,5,{8}6,3,
{32}1b,2,3,4,{16}6,5,7,1,{8}8,{32}8b,7,6,5,{16}3,4,2,8,{8}1,
7h[16:3],{16}5b,5h[16:3],{8},3,1h[16:3],{16}3,3h[16:3],{8},5,
{1}Cf/8bw4b[4:3],
{4},A6,A5,A4,
{1}A3/6>3[4:3],
{4},A2,A1,A8,
A7/2<7b[4:3],E6,,E4,
,E1,C,E5,
D5/8-5[4:3],E2,,E4,
4-1[8:3],{2},{16}4,3,2,1,
{8}8h[4:1]/2h[4:1],{4},{8}8h[4:1]/2h[4:1],{4},1h[8:1],
{8}3h[4:1]/7h[4:1],{4},{8}3h[4:1]/7h[4:1],{4},{8}5,4,
1h[4:1]/7h[4:1],{4},{8}1h[4:1]/7h[4:1],{4},8h[8:1],
{8}2h[4:1]/6h[4:1],{4},{8}2h[4:1]/6h[4:1],{4},{8}4,5,
{32}2,1,{16}2,4,3,{8}4,{16}1,8,5,7,5,6,{8}4,2,
{32}7,8,{16}7,5,6,{8}5,{16}8,1,4,2,4,3,{8}5,7,
{32}8b,7,6,5,{16}3,4,{8}2,{32}1b,2,3,4,{16}6,5,{8}6,{16}7/4,8,1,8,
1,2,3,4,5,6,7,8,{32}A1,D2,A2,D3,A3,D4,A4,D5,A5,D6,A6,D7,A7,D8,A8,D1,
{8}1x/7x<4[8:1],8,{16}7,3>8[8:1],{8},{16}4,{8},{16}7h[16:5],{8},{16}D6,D5,
{8}D4,7,{16}1-5[8:1],8,{8},{16}1/3>7[8:1],{8},{16}3,,D6,D5,D4,
{8}2>5[8:1],1,{16}2,6<1[8:1],{8},{16}5,{8},{16}2h[16:5],{8},{16}D4,D5,
{8}D6,2,{16}8-4[8:1],1,{8},{16}8/6<2[8:1],{8},{16}6,,D4,D5,D6,
{8}7<4[8:1],8,{16}7,3>8[8:1],{8},{16}4,{8},{16}7h[16:5],{8},{16}D6,D5,
{8}D4,{16}1/2,8,7-3[8:1],6,{8},{16}7/5<1[8:1],{8},{16}5,,D3,D4,D5,
{8}8V61[4:1],6,{16}1,1-5[8:1],{8},{16}5,{8},{16}2,{8},{16}3,4,
{8}5/2,8/1,{16},5/7,{8},6/3,{16}5,4,{8}5w1b[8:1],4/6,
{4}5/Cf,{8}5/2<7b[8:1],{16}3,4,{8}2,5,6h[4:1],{16}5,4,
{8}3V14b[4:1],8/2,{16}4-8b[8:1],4,,7,7-5b[8:1],{8},{16}7x,,1,2,3,
{8}4-8b[8:1],5,{16}6<2b[8:1],6,{8},{16}2/6,{8},{16}3h[16:5],{8},{16}4,5,
{8}6V85b[4:1],1/7,{16}5-1b[8:1],5,,2,2-4b[8:1],{8},{16}2x,,8,7,6,
{8}5-1b[8:1],4,{16}3>7b[8:1],3,{8},{16}7/3,{8},{16}6h[16:5],{8},{16}5,4,
{8}3V14b[4:1],2/8,{16}4-8b[8:1],4,,7,7-5b[8:1],{8},{16}7x,,1,2,3,
{8}4/5b,6/3,7/2,8/1,{16}2b,4,3,5,4,6,5,7,
6,5,4,3,2,1,8,7,{32}A6,D6,A5,D5,A4,D4,A3,D3,A2,D2,A1,D1,A8,D8,{16}A7,
{8}6bx/5,8/4,{16}2-4-1-5[8:3],1,{8}2,{2}6h[16:5],
{8}3/4,1/5,{16}7-5-8-4[8:3],8,{8}7,{2}3h[8:3],
{8}5/6,8/4,{16}2-4<5-1[8:3],1,{8}2,{2}8-6b[8:1],
{8}3/4,5/1,{16}7-5>4-8b[8:3],8,{8}7,{2}1-3[8:1],
{8}4/8,6/5,{16}7-4-1[4:1],5,{8}7,{2}8-4b[8:1],
{8}8/4,2/1,{16}3-8-5b[4:1],1,{8}3,{2}4-8[8:1],
{8}6/5,4/7,{16}1,8,{8},{48}2,E2,B1,B8,,,,,,6,E6,B5,{8}B4,{48}1,B1,Cf,B5,{24},{16}6x,
5x,{8}7/4,{16},1/Cf,{8},6,5,4,3,
{16}A7,A1,A5,A3,{48}A8,B8,Cf,B4,{6}A4,4-8[8:1],{12},{8}4,{16}2,1,
{8}2,{16}8,1,{8}7,{16}2,4,{8}2,{16}5,4,{8}5-2[8:1],{16}4,6,
{2}5pp1b[16:7],{16}1,{8},{16}2,{8},3>7b[8:1],
{4}4,{8}6h[8:1],{16}5,4,{2}3-5b[8:1]/6-2b[8:1],
{32}2b/8,3,{16}4,6,5,{8}7,{16}1,8,2,4,2,6,{8}4,8,
{32}7b/1,6,{16}5,3,4,{8}2,{16}8,1,7,5,7,3,{8}5,1,
2/8,7/3,6/4,5,{16}3,4,2,5,1,6,8,7,
1,2,3,4,5,6,7,8,{32}A1,D2,A2,D3,A3,D4,A4,D5,A5,D6,A6,D7,A7,D8,{16}A8f,
E
