&title=トマヨイ
&artist=SPACELECTRO feat. 椎木レク
&first=0.02
&des=bbben
&lv_5=12+
&inote_5=(165)
{4},,,,
{4}8bv3[4:1]/5b<5[8:9],,,,,,,,
8-5[4:1]*z4[8:9],,,,,,,,
6-8[4:1]/2V48[8:9],,,,,,,,
7v1[4:1],,,
{8}5-8[4:1],3<3[8:5],
{4},,,,
{16}4b/6b,,,,2,,2,,8,,,6,,,3-8[4:1],,,,7,,6,,5,,,,,,
8,1,2,3,,,,,
7,,7,,5h[16:3],,,3,,,1<6[4:1],,,,4,,3,,2,,,,,,
5,6,7,8,1-4[8:1],,,,6b,,6,,8,,,2,,,4>1[4:1],,,,
7,,6,,5,,,,,,
15,26,37,84,,,,,
18,,45,,67,,,35,,,24,,,,86,,27,,13,,,,,,
37,26,15,48,
{4}7>7[8:13],5h[8:13],,,,,,,
5b>5[4:5],1h[4:5],,,,,
{8},3b,,1b,
{4}6h/7h[4:1],,3h/2h[4:1],,8h[8:1]/7h[8:1],87,,{8}4,4,
{4}1h[8:1]/2h[8:1],12,
{8},8,1h[8:1]/2h[8:1],,12,,12,,,2-7[330#4:1]/7-2[330#4:1],,,
{16}4,5,4,6,4,6,4,5,4,6,4,6,4,6,4,6,
3,4,3,5,3,5,3,4,3,5,3,5,2b,,7b,,
4,8,4,8,4,8,4,8,4,8,4,8,4,8,4,8,
{32}4,3,2,1,8,7,6,5,4,3,2,1,8,7,6,5,4,3,2,1,8,7,6,5,4,3,2,1,8,7,6,5,
{4}4-1[4:1],,,,2q8[4:1],8q4[4:1],4-1[8:1],
{8}7b,7b,
{4}7-4[8:1],7-2[8:1],7-4[8:1],7-2[8:1],7-4[8:1],7-2[8:1],7qq5[8:1],1b,
{16}3/8,,,1b-5[2000#1:1],,7b-3[2000#1:1],,2b-6[2000#1:1],,,
5b-8[2000#1:1],,4b-1[2000#1:1],,,,
{16}5h,,5,4,,4,5,,5-7[8:1],,3,4,5,,,,
{8}2-5[8:1],2,{4}2-7[8:1],2-5[8:1],2-7[8:1],2-5[8:1],2-7[8:1],2pp4[8:1],8bD,
{16}7b-2[2000#1:1],,,3b-6[2000#1:1],,8b-4[2000#1:1],,2,2b-6[2000#1:1],,7b-3[2000#1:1],,,1b-5[2000#1:1],,6b-1[2000#1:1],
{8}4h[4:1],,2h[4:1],,8-6[8:1],8,8>3[4:1],,,,
{16}5,4,3,2,1,8,7,6,5,4,3,2,
{32}3,4,5,6,7,8,1,2,3,4,5,6,7,8,1,2,3-7[8:1],4,5,6,7,8,1,2,3,,,,,,,,
{8}2-6[8:1]/8,8,2/8-4[8:1],,2<7[8:1]/8,,26,,
{16}4h,,4,5,,5,4,,4-2[8:1],,6,5,4,,,,
{16},,36,,1-5[8:1],1,1,,7-2[8:1],,,,1-4[8:1],,,,6-3[8:1],,,,3,,,2b-8[2000#1:1],,,
7b-3[2000#1:1],,,,,,
4,5,3,6,2,7,1,8,2,7,3,6,4,5,3,6,
,,2,2,,46,46,,7-3[8:1],,1,1,,,,,
4,5,2,6,3,5,2,6,3,5,2,6,3,5,2,6,3,5,2,6,3,5,2,6,,,8b/7b
,,,,2h/1h,,2b/1b,8,7,6,5,4,3,2,1,8,7,6,5,4,3,2,1,8,7,6,5,4,3,2,1,8,4b/5b,,
{8},6,74,,3,25,,8,27,,,4b/5b,,,2-7[8:1],6-3[8:1],,,,,
8-5[8:1]/2-7[8:1],,,,,1-7[8:1]/2-6[8:1],,1V35[4:1],,,,,,,
{16}4,5,4,6,4,6,4,5,4,6,4,6,4,6,4,6,
3,4,3,5,3,5,3,4,3,5,3,5,2b/6b,,1b/7b,,
1,2,8,7,2,3,7,6,3,4,6,5,2,3,8,7,
1,2,8,7,2,3,7,6,3,4,6,5,2b,,7b,,
{16}1,8,3,4,1,8,5,6,2,7,4,5,8,7,4,5,
{32}2,3,4,5,6,7,8,1,2,3,4,5,6,7,8,1,2,3,4,5,6,7,8,1,2w6[8:1],3,4,5,6,7,8,1,
{4}2,,,,
{32}7,6,5,4,3,2,1,8,7,6,5,4,3,2,1,8,7-3[8:1],6,5,4,3-7[8:1],2,1,8,7,,,,,,,,
{8}2b,2b,2b/6h[8:1],,2b/8,7,2b,5h[8:1],2b,7,2b/6,5h[4:1],2b,,
{16}2b,1,2,1,
{8}3b,7h[8:1],3b,,3b/1,8,3b,6h[8:1],3b,8,3b/7,6h[4:1],3b,,
{16}3b,5,3,5,
{4}1b-5[2000#1:1],7b-2[2000#1:1],4b-1[2000#1:1],6b-3[2000#1:1],
2b-7[2000#1:1],6b-2[2000#1:1],8b-4[2000#1:1],5b-1[2000#1:1],
{16}6b-4[2000#1:1],,,2b-8[2000#1:1],,,5b-7[2000#1:1],,,4b-2[2000#1:1],,
6b-8[2000#1:1],,2,2,2,
{1}2>2[4:2],
{16}4b,5b,4b,5b,4b,,4b,,4b-2[2000#1:1],,,5b-7[2000#1:1],,,1b-3[2000#1:1],
,,,87,,56,,43,,21,,,47,,,47,,56,,,,56,,34,,34,,,25,,,16,,,,87,,87,,87,,87,,,36,,,,,
1b/8b,,1b/8b,,1b/8b,,,,34,,,57,,,34,,,,47,,52,,47,,52,,,16,,87,87,87,
6b,,3,3,,8,8,,2,2,,5,5,3,3,,
{32}4,5,4,5,4,5,4,5,4,5,4,5,4,5,4,5,4,5,4,5,4,5,4,5,4w8[8:1],
